<?xml version="1.0" standalone="no"?>
<!DOCTYPE svg PUBLIC "-//W3C//DTD SVG 1.1//EN" "http://www.w3.org/Graphics/SVG/1.1/DTD/svg11.dtd" >
<svg xmlns="http://www.w3.org/2000/svg">
    <defs>
        <font id="ApercuPro-Light">
            <font-face font-family="Apercu Pro"
                       units-per-em="1000"
                       ascent="1104"
                       descent="-279"
                       bbox="-74 -218 2370 1098"
                    />
            <missing-glyph horiz-adv-x="0" />
            
            <glyph glyph-name="#" unicode="&#x23;" horiz-adv-x="640" d=" M117,486 L251,486 L294,700 L350,700 L307,486 L466,486 L510,700 L566,700 L522,486 L640,486 L640,432 L511,432 L478,268 L600,268 L600,214 L466,214 L423,0 L367,0 L410,214 L251,214 L207,0 L151,0 L195,214 L77,214 L77,268 L206,268 L239,432 L117,432 M262,268 L422,268 L455,432 L295,432"/> 
            <glyph glyph-name="$" unicode="&#x24;" horiz-adv-x="456" d=" M364,566 Q339,613 309.5,629.5 Q280,646 248,646 Q224,646 205.5,637 Q187,628 175,613.5 Q163,599 157,580.5 Q151,562 151,544 Q151,501 173.5,475 Q196,449 230,429.5 Q264,410 303.5,393 Q343,376 377,351.5 Q411,327 433.5,291 Q456,255 456,197 Q456,154 443,118.5 Q430,83 407.5,56.5 Q385,30 354,13.5 Q323,-3 286,-8 L286,-90 L226,-90 L226,-8 Q151,1 104.5,53.5 Q58,106 42,181 L99,215 Q108,184 120,155 Q132,126 150,103.5 Q168,81 194,67.5 Q220,54 256,54 Q313,54 350,89 Q387,124 387,195 Q387,238 364.5,266 Q342,294 308.5,314 Q275,334 236,351.5 Q197,369 163.5,392.5 Q130,416 107.5,449.5 Q85,483 85,536 Q85,572 96,601.5 Q107,631 126,653 Q145,675 171,688.5 Q197,702 226,706 L226,790 L286,790 L286,705 Q313,701 333,691.5 Q353,682 368.5,668 Q384,654 395.5,636.5 Q407,619 418,600"/> 
            <glyph glyph-name="%" unicode="&#x25;" horiz-adv-x="782" d=" M62,548 Q62,581 73.5,610.5 Q85,640 106,661.5 Q127,683 156,695.5 Q185,708 219,708 Q253,708 282,695.5 Q311,683 332,661.5 Q353,640 364.5,610.5 Q376,581 376,548 Q376,515 364.5,485.5 Q353,456 332,434.5 Q311,413 282,400.5 Q253,388 219,388 Q185,388 156,400.5 Q127,413 106,434.5 Q85,456 73.5,485.5 Q62,515 62,548 M116,548 Q116,503 143.5,472.5 Q171,442 219,442 Q267,442 294.5,472.5 Q322,503 322,548 Q322,593 294.5,623.5 Q267,654 219,654 Q171,654 143.5,623.5 Q116,593 116,548 M468,152 Q468,185 479.5,214.5 Q491,244 512,265.5 Q533,287 562,299.5 Q591,312 625,312 Q659,312 688,299.5 Q717,287 738,265.5 Q759,244 770.5,214.5 Q782,185 782,152 Q782,119 770.5,89.5 Q759,60 738,38.5 Q717,17 688,4.5 Q659,-8 625,-8 Q591,-8 562,4.5 Q533,17 512,38.5 Q491,60 479.5,89.5 Q468,119 468,152 M522,152 Q522,107 549.5,76.5 Q577,46 625,46 Q673,46 700.5,76.5 Q728,107 728,152 Q728,197 700.5,227.5 Q673,258 625,258 Q577,258 549.5,227.5 Q522,197 522,152 M714,691 L172,-24 L130,9 L672,724"/> 
            <glyph glyph-name="&amp;" unicode="&#x26;" horiz-adv-x="613" d=" M283,-8 Q238,-8 200.5,5.5 Q163,19 136,44.5 Q109,70 94,108 Q79,146 79,194 Q79,237 92,271.5 Q105,306 125,333 Q145,360 170,379 Q195,398 218,410 Q209,423 197.5,439.5 Q186,456 176,475 Q166,494 159,515 Q152,536 152,559 Q152,595 164.5,623 Q177,651 198,670 Q219,689 246,698.5 Q273,708 303,708 Q374,708 415,669 Q456,630 456,568 Q456,535 443,508.5 Q430,482 409,460 Q388,438 361.5,421 Q335,404 308,390 L471,181 Q499,235 524,309 L567,259 Q555,225 541,192.5 Q527,160 510,131 L613,0 L541,0 L476,82 Q443,41 396,16.5 Q349,-8 283,-8 M283,50 Q332,50 369.5,69 Q407,88 438,130 L254,365 Q203,337 172,296 Q141,255 141,192 Q141,127 180.5,88.5 Q220,50 283,50 M303,654 Q263,654 238.5,628.5 Q214,603 214,555 Q214,542 219.5,526.5 Q225,511 233,495 Q241,479 251.5,463.5 Q262,448 272,435 Q332,464 363,493 Q394,522 394,563 Q394,600 371.5,627 Q349,654 303,654"/> 
            <glyph glyph-name="'" unicode="&#x27;" horiz-adv-x="180" d=" M91,708 L180,708 L159,480 L112,480"/> 
            <glyph glyph-name="(" unicode="&#x28;" horiz-adv-x="246" d=" M246,750 Q196,669 168,571.5 Q140,474 140,350 Q140,226 168,128.5 Q196,31 246,-50 L180,-50 Q158,-14 138,28 Q118,70 103,119.5 Q88,169 79.5,226.5 Q71,284 71,350 Q71,416 79.5,473 Q88,530 103,579.5 Q118,629 138,671.5 Q158,714 180,750"/> 
            <glyph glyph-name=")" unicode="&#x29;" horiz-adv-x="210" d=" M101,750 Q123,714 143,671.5 Q163,629 178,579.5 Q193,530 201.5,473 Q210,416 210,350 Q210,284 201.5,226.5 Q193,169 178,119.5 Q163,70 143,28 Q123,-14 101,-50 L35,-50 Q85,31 113,128.5 Q141,226 141,350 Q141,474 113,571.5 Q85,669 35,750"/> 
            <glyph glyph-name="*" unicode="&#x2A;" horiz-adv-x="431" d=" M274,562 L413,608 L431,554 L292,507 L378,391 L332,357 L246,474 L160,357 L114,391 L200,507 L61,554 L79,608 L218,562 L218,708 L274,708"/> 
            <glyph glyph-name="+" unicode="&#x2B;" horiz-adv-x="479" d=" M479,288 L302,288 L302,111 L246,111 L246,288 L69,288 L69,344 L246,344 L246,520 L302,520 L302,344 L479,344"/> 
            <glyph glyph-name="," unicode="&#x2C;" horiz-adv-x="208" d=" M116,88 L208,88 L112,-77 L66,-77"/> 
            <glyph glyph-name="/" unicode="&#x2F;" horiz-adv-x="519" d=" M519,750 L83,-50 L17,-50 L453,750"/> 
            <glyph glyph-name="0" unicode="&#x30;" horiz-adv-x="549" d=" M308,708 Q368,708 413.5,682 Q459,656 489,609 Q519,562 534,496 Q549,430 549,350 Q549,270 534,204 Q519,138 489,91 Q459,44 413.5,18 Q368,-8 308,-8 Q248,-8 202.5,18 Q157,44 127,91 Q97,138 82,204 Q67,270 67,350 Q67,430 82,496 Q97,562 127,609 Q157,656 202.5,682 Q248,708 308,708 M308,652 Q266,652 233,629.5 Q200,607 177.5,567 Q155,527 143,471.5 Q131,416 131,350 Q131,284 143,228.5 Q155,173 177.5,133 Q200,93 233,70.5 Q266,48 308,48 Q350,48 383,70.5 Q416,93 438.5,133 Q461,173 473,228.5 Q485,284 485,350 Q485,416 473,471.5 Q461,527 438.5,567 Q416,607 383,629.5 Q350,652 308,652"/> 
            <glyph glyph-name="1" unicode="&#x31;" horiz-adv-x="249" d=" M249,700 L249,0 L187,0 L187,594 L71,521 L71,597 L233,700"/> 
            <glyph glyph-name="2" unicode="&#x32;" horiz-adv-x="489" d=" M75,23 L330,353 Q354,383 369,405.5 Q384,428 392.5,447 Q401,466 404.5,484 Q408,502 408,524 Q408,584 375,618 Q342,652 284,652 Q229,652 193,612 Q157,572 148,511 L90,522 Q94,563 109.5,597 Q125,631 150.5,656 Q176,681 210,694.5 Q244,708 284,708 Q324,708 358,696 Q392,684 417.5,660.5 Q443,637 457.5,602 Q472,567 472,522 Q472,471 448,426 Q424,381 387,333 L173,56 L489,56 L489,0 L75,0"/> 
            <glyph glyph-name="3" unicode="&#x33;" horiz-adv-x="499" d=" M125,201 Q133,134 171,91 Q209,48 278,48 Q356,48 395.5,93 Q435,138 435,214 Q435,295 394,338 Q353,381 278,381 Q244,381 216,363 L186,402 L367,644 L98,644 L98,700 L464,700 L464,683 L275,432 Q280,434 288,434.5 Q296,435 301,435 Q339,435 375,420.5 Q411,406 438.5,378 Q466,350 482.5,308.5 Q499,267 499,214 Q499,165 484,124 Q469,83 440.5,54 Q412,25 371,8.5 Q330,-8 278,-8 Q236,-8 198.5,5 Q161,18 132.5,43.5 Q104,69 86,106.5 Q68,144 63,192"/> 
            <glyph glyph-name="4" unicode="&#x34;" horiz-adv-x="523" d=" M368,161 L59,161 L59,178 L354,700 L430,700 L430,217 L523,217 L523,161 L430,161 L430,0 L368,0 M368,217 L368,612 L147,217"/> 
            <glyph glyph-name="5" unicode="&#x35;" horiz-adv-x="493" d=" M133,195 Q137,164 146.5,137.5 Q156,111 173.5,91 Q191,71 216,59.5 Q241,48 277,48 Q354,48 391.5,97 Q429,146 429,228 Q429,319 389,363.5 Q349,408 277,408 Q228,408 191.5,380 Q155,352 133,314 L89,324 L125,700 L452,700 L452,644 L181,644 L156,406 Q178,429 210.5,446.5 Q243,464 283,464 Q331,464 370,447.5 Q409,431 436.5,400.5 Q464,370 478.5,326.5 Q493,283 493,228 Q493,176 478,133 Q463,90 435.5,58.5 Q408,27 368,9.5 Q328,-8 277,-8 Q237,-8 202,3.5 Q167,15 140,39 Q113,63 95.5,99 Q78,135 72,184"/> 
            <glyph glyph-name="6" unicode="&#x36;" horiz-adv-x="514" d=" M296,448 Q345,448 385,430.5 Q425,413 453.5,382 Q482,351 498,309.5 Q514,268 514,220 Q514,172 498,130.5 Q482,89 453.5,58 Q425,27 385,9.5 Q345,-8 296,-8 Q247,-8 207,9.5 Q167,27 138.5,58 Q110,89 94,130.5 Q78,172 78,220 Q78,250 87.5,283.5 Q97,317 115,349 L322,708 L387,708 L231,431 Q242,439 262,443.5 Q282,448 296,448 M296,392 Q228,392 185,346 Q142,300 142,220 Q142,182 153.5,150.5 Q165,119 185.5,96.5 Q206,74 234,61 Q262,48 296,48 Q330,48 358,61 Q386,74 406.5,96.5 Q427,119 438.5,150.5 Q450,182 450,220 Q450,300 407,346 Q364,392 296,392"/> 
            <glyph glyph-name="7" unicode="&#x37;" horiz-adv-x="447" d=" M105,0 L373,644 L59,644 L59,700 L447,700 L447,680 L170,0"/> 
            <glyph glyph-name="8" unicode="&#x38;" horiz-adv-x="499" d=" M289,708 Q331,708 365,694.5 Q399,681 423.5,657 Q448,633 461.5,599.5 Q475,566 475,526 Q475,471 448.5,433.5 Q422,396 387,377 Q411,368 431.5,351 Q452,334 467,310.5 Q482,287 490.5,258 Q499,229 499,196 Q499,146 482,107.5 Q465,69 436,43.5 Q407,18 369,5 Q331,-8 289,-8 Q247,-8 209,5 Q171,18 142,43.5 Q113,69 96,107.5 Q79,146 79,196 Q79,229 87.5,258 Q96,287 111,310.5 Q126,334 146.5,351 Q167,368 191,377 Q156,396 129.5,433.5 Q103,471 103,526 Q103,566 116.5,599.5 Q130,633 154.5,657 Q179,681 213,694.5 Q247,708 289,708 M289,344 Q223,344 183,305 Q143,266 143,196 Q143,126 183,87 Q223,48 289,48 Q355,48 395,87 Q435,126 435,196 Q435,266 395,305 Q355,344 289,344 M289,652 Q233,652 199,618 Q165,584 165,526 Q165,468 199,434 Q233,400 289,400 Q345,400 379,434 Q413,468 413,526 Q413,584 379,618 Q345,652 289,652"/> 
            <glyph glyph-name="9" unicode="&#x39;" horiz-adv-x="507" d=" M289,252 Q240,252 200,269.5 Q160,287 131.5,318 Q103,349 87,390.5 Q71,432 71,480 Q71,528 87,569.5 Q103,611 131.5,642 Q160,673 200,690.5 Q240,708 289,708 Q338,708 378,690.5 Q418,673 446.5,642 Q475,611 491,569.5 Q507,528 507,480 Q507,450 497.5,416.5 Q488,383 470,351 L263,-8 L198,-8 L354,269 Q343,261 323,256.5 Q303,252 289,252 M289,308 Q357,308 400,354 Q443,400 443,480 Q443,517 431.5,549 Q420,581 399.5,603.5 Q379,626 351,639 Q323,652 289,652 Q255,652 227,639 Q199,626 178.5,603.5 Q158,581 146.5,549 Q135,517 135,480 Q135,400 178,354 Q221,308 289,308"/> 
            <glyph glyph-name=":" unicode="&#x3A;" horiz-adv-x="200" d=" M98,49 Q98,71 112,85.5 Q126,100 149,100 Q171,100 185.5,85.5 Q200,71 200,49 Q200,26 185.5,12 Q171,-2 149,-2 Q126,-2 112,12 Q98,26 98,49 M98,415 Q98,437 112,451.5 Q126,466 149,466 Q171,466 185.5,451.5 Q200,437 200,415 Q200,392 185.5,378 Q171,364 149,364 Q126,364 112,378 Q98,392 98,415"/> 
            <glyph glyph-name=";" unicode="&#x3B;" horiz-adv-x="203" d=" M98,415 Q98,437 112,451.5 Q126,466 149,466 Q171,466 185.5,451.5 Q200,437 200,415 Q200,392 185.5,378 Q171,364 149,364 Q126,364 112,378 Q98,392 98,415 M367,88 L459,88 L363,-77 L317,-77"/> 
            <glyph glyph-name="&lt;" unicode="&#x3C;" horiz-adv-x="390" d=" M56,344 L390,524 L390,462 L107,310 L390,158 L390,96 L56,276"/> 
            <glyph glyph-name="=" unicode="&#x3D;" horiz-adv-x="489" d=" M102,421 L489,421 L489,365 L102,365 M102,255 L489,255 L489,199 L102,199"/> 
            <glyph glyph-name="&gt;" unicode="&#x3E;" horiz-adv-x="396" d=" M396,276 L62,96 L62,158 L345,310 L62,462 L62,524 L396,344"/> 
            <glyph glyph-name="?" unicode="&#x3F;" horiz-adv-x="388" d=" M173,53 Q173,77 188.5,92.5 Q204,108 228,108 Q252,108 267.5,92.5 Q283,77 283,53 Q283,29 267.5,13.5 Q252,-2 228,-2 Q204,-2 188.5,13.5 Q173,29 173,53 M353,302 Q338,248 306,222.5 Q274,197 226,197 Q202,197 179.5,204 Q157,211 140,226 Q123,241 112.5,263.5 Q102,286 102,318 Q102,398 190,446 L272,491 Q298,505 311,522 Q324,539 324,565 Q324,605 299,627.5 Q274,650 226,650 Q138,650 113,548 L50,559 Q62,627 107.5,667.5 Q153,708 233,708 Q302,708 345,669.5 Q388,631 388,568 Q388,529 367.5,499 Q347,469 301,444 L229,405 Q194,386 179,366 Q164,346 164,316 Q164,288 179.5,271.5 Q195,255 224,255 Q254,255 273,270 Q292,285 303,321"/> 
            <glyph glyph-name="@" unicode="&#x40;" horiz-adv-x="809" d=" M613,509 L589,244 Q588,236 587.5,230 Q587,224 587,221 Q587,189 602,176.5 Q617,164 642,164 Q668,164 687,178 Q706,192 719,217 Q732,242 738,276.5 Q744,311 744,352 Q744,499 665.5,580.5 Q587,662 441,662 Q380,662 321.5,638 Q263,614 217.5,568 Q172,522 144,455 Q116,388 116,301 Q116,220 141,156.5 Q166,93 210,50 Q254,7 313,-15.5 Q372,-38 440,-38 Q472,-38 501.5,-34.5 Q531,-31 560,-23 Q589,-15 620,-2 Q651,11 686,31 L708,-19 Q670,-39 638,-53.5 Q606,-68 575,-77 Q544,-86 511.5,-90 Q479,-94 440,-94 Q358,-94 287,-67.5 Q216,-41 163.5,10 Q111,61 81,134.5 Q51,208 51,301 Q51,406 84.5,484 Q118,562 173.5,614 Q229,666 300,692 Q371,718 446,718 Q525,718 591.5,694.5 Q658,671 706.5,625 Q755,579 782,510.5 Q809,442 809,352 Q809,287 795,241 Q781,195 757.5,165.5 Q734,136 703,122 Q672,108 638,108 Q615,108 597,115 Q579,122 565.5,133 Q552,144 543,158 Q534,172 530,186 Q508,153 475.5,130.5 Q443,108 395,108 Q354,108 322.5,121.5 Q291,135 269.5,160 Q248,185 237,219.5 Q226,254 226,295 Q226,341 241.5,381.5 Q257,422 284.5,452 Q312,482 350,499 Q388,516 433,516 Q471,516 501,499 Q531,482 545,453 L559,509 M426,460 Q395,460 370,447 Q345,434 328,411 Q311,388 301.5,357.5 Q292,327 292,292 Q292,228 321.5,196 Q351,164 402,164 Q433,164 457.5,178 Q482,192 499,215.5 Q516,239 524.5,269.5 Q533,300 533,332 Q533,390 506,425 Q479,460 426,460"/> 
            <glyph glyph-name="A" unicode="&#x41;" horiz-adv-x="574" d=" M321,700 L574,0 L506,0 L436,199 L148,199 L78,0 L10,0 L263,700 M169,261 L415,261 L292,610"/> 
            <glyph glyph-name="B" unicode="&#x42;" horiz-adv-x="557" d=" M326,700 Q419,700 470,652.5 Q521,605 521,520 Q521,471 494,434.5 Q467,398 433,383 Q484,365 520.5,321 Q557,277 557,202 Q557,156 542,118.5 Q527,81 499,55 Q471,29 431,14.5 Q391,0 342,0 L101,0 L101,700 M167,62 L329,62 Q405,62 446.5,93.5 Q488,125 488,202 Q488,279 446.5,310.5 Q405,342 329,342 L167,342 M167,638 L167,404 L326,404 Q387,404 420,432.5 Q453,461 453,521 Q453,581 420,609.5 Q387,638 326,638"/> 
            <glyph glyph-name="C" unicode="&#x43;" horiz-adv-x="632" d=" M632,192 Q606,100 537.5,46 Q469,-8 368,-8 Q309,-8 253,14 Q197,36 154,80 Q111,124 85,191.5 Q59,259 59,350 Q59,441 85,508.5 Q111,576 154.5,620 Q198,664 253.5,686 Q309,708 368,708 Q469,708 537.5,654 Q606,600 632,508 L567,489 Q547,562 498,604 Q449,646 368,646 Q315,646 271,626.5 Q227,607 195.5,569.5 Q164,532 146,477 Q128,422 128,350 Q128,278 146,223 Q164,168 195.5,130.5 Q227,93 271,73.5 Q315,54 368,54 Q449,54 498,96 Q547,138 567,211"/> 
            <glyph glyph-name="D" unicode="&#x44;" horiz-adv-x="603" d=" M285,700 Q352,700 410.5,676 Q469,652 511.5,607 Q554,562 578.5,497 Q603,432 603,350 Q603,268 578.5,203 Q554,138 511.5,93 Q469,48 410.5,24 Q352,0 285,0 L101,0 L101,700 M167,638 L167,62 L286,62 Q334,62 379,78.5 Q424,95 458.5,130.5 Q493,166 513.5,220.5 Q534,275 534,350 Q534,425 513.5,479.5 Q493,534 458.5,569.5 Q424,605 379,621.5 Q334,638 286,638"/> 
            <glyph glyph-name="E" unicode="&#x45;" horiz-adv-x="506" d=" M496,700 L496,638 L167,638 L167,404 L436,404 L436,342 L167,342 L167,62 L506,62 L506,0 L101,0 L101,700"/> 
            <glyph glyph-name="F" unicode="&#x46;" horiz-adv-x="503" d=" M503,700 L503,638 L167,638 L167,396 L443,396 L443,334 L167,334 L167,0 L101,0 L101,700"/> 
            <glyph glyph-name="G" unicode="&#x47;" horiz-adv-x="640" d=" M574,108 Q546,54 491,23 Q436,-8 366,-8 Q307,-8 251.5,14.5 Q196,37 153,81.5 Q110,126 84.5,193 Q59,260 59,350 Q59,440 84.5,507 Q110,574 153,618.5 Q196,663 251.5,685.5 Q307,708 366,708 Q472,708 541,653 Q610,598 636,504 L571,486 Q548,562 496,604 Q444,646 366,646 Q314,646 270.5,626.5 Q227,607 195.5,569.5 Q164,532 146,477 Q128,422 128,350 Q128,278 146,222.5 Q164,167 195.5,129.5 Q227,92 270.5,73 Q314,54 366,54 Q466,54 519,114 Q572,174 574,291 L412,291 L412,353 L640,353 L640,0 L582,0"/> 
            <glyph glyph-name="H" unicode="&#x48;" horiz-adv-x="589" d=" M589,700 L589,0 L523,0 L523,341 L167,341 L167,0 L101,0 L101,700 L167,700 L167,403 L523,403 L523,700"/> 
            <glyph glyph-name="I" unicode="&#x49;" horiz-adv-x="167" d=" M167,0 L101,0 L101,700 L167,700"/> 
            <glyph glyph-name="J" unicode="&#x4A;" horiz-adv-x="410" d=" M344,700 L410,700 L410,205 Q410,152 393.5,112.5 Q377,73 350,46 Q323,19 287.5,5.5 Q252,-8 213,-8 Q166,-8 131,7 Q96,22 72,47 Q48,72 34,104 Q20,136 15,171 L83,186 Q91,126 122.5,90 Q154,54 213,54 Q240,54 264,62.5 Q288,71 306,88.5 Q324,106 334,133 Q344,160 344,198"/> 
            <glyph glyph-name="K" unicode="&#x4B;" horiz-adv-x="549" d=" M468,0 L167,371 L167,0 L101,0 L101,700 L167,700 L167,401 L440,700 L524,700 L237,386 L549,0"/> 
            <glyph glyph-name="L" unicode="&#x4C;" horiz-adv-x="495" d=" M167,700 L167,62 L495,62 L495,0 L101,0 L101,700"/> 
            <glyph glyph-name="M" unicode="&#x4D;" horiz-adv-x="681" d=" M183,700 L391,173 L599,700 L681,700 L681,0 L615,0 L615,572 L412,64 L370,64 L167,572 L167,0 L101,0 L101,700"/> 
            <glyph glyph-name="N" unicode="&#x4E;" horiz-adv-x="592" d=" M592,700 L592,0 L514,0 L167,593 L167,0 L101,0 L101,700 L179,700 L526,105 L526,700"/> 
            <glyph glyph-name="O" unicode="&#x4F;" horiz-adv-x="673" d=" M366,708 Q427,708 483,683.5 Q539,659 581,612.5 Q623,566 648,499.5 Q673,433 673,350 Q673,267 648,200.5 Q623,134 581,87.5 Q539,41 483,16.5 Q427,-8 366,-8 Q304,-8 248.5,16.5 Q193,41 151,87.5 Q109,134 84,200.5 Q59,267 59,350 Q59,433 84,499.5 Q109,566 151,612.5 Q193,659 248.5,683.5 Q304,708 366,708 M366,646 Q317,646 273.5,627.5 Q230,609 198,571.5 Q166,534 147,478.5 Q128,423 128,350 Q128,276 147,221 Q166,166 198,128.5 Q230,91 273.5,72.5 Q317,54 366,54 Q415,54 458.5,72.5 Q502,91 534,128.5 Q566,166 585,221 Q604,276 604,350 Q604,423 585,478.5 Q566,534 534,571.5 Q502,609 458.5,627.5 Q415,646 366,646"/> 
            <glyph glyph-name="P" unicode="&#x50;" horiz-adv-x="541" d=" M167,314 L167,0 L101,0 L101,700 L339,700 Q433,700 487,649 Q541,598 541,507 Q541,416 487,365 Q433,314 339,314 M340,376 Q376,376 401,386 Q426,396 442,413.5 Q458,431 465,455 Q472,479 472,507 Q472,535 465,559 Q458,583 442,600.5 Q426,618 401,628 Q376,638 340,638 L167,638 L167,376"/> 
            <glyph glyph-name="Q" unicode="&#x51;" horiz-adv-x="673" d=" M366,708 Q427,708 483,683.5 Q539,659 581,612.5 Q623,566 648,499.5 Q673,433 673,350 Q673,273 652,211 Q631,149 594,103 L661,37 L616,-8 L550,58 Q511,26 464,9 Q417,-8 366,-8 Q304,-8 248.5,16.5 Q193,41 151,87.5 Q109,134 84,200.5 Q59,267 59,350 Q59,433 84,499.5 Q109,566 151,612.5 Q193,659 248.5,683.5 Q304,708 366,708 M477,221 L549,148 Q575,185 589.5,235 Q604,285 604,350 Q604,423 585,478.5 Q566,534 534,571.5 Q502,609 458.5,627.5 Q415,646 366,646 Q317,646 273.5,627.5 Q230,609 198,571.5 Q166,534 147,478.5 Q128,423 128,350 Q128,276 147,221 Q166,166 198,128.5 Q230,91 273.5,72.5 Q317,54 366,54 Q405,54 441,66 Q477,78 506,101 L432,176"/> 
            <glyph glyph-name="R" unicode="&#x52;" horiz-adv-x="591" d=" M298,346 L167,346 L167,0 L101,0 L101,700 L326,700 Q420,700 473,656.5 Q526,613 526,523 Q526,445 485.5,402 Q445,359 373,349 L591,0 L517,0 M167,638 L167,408 L322,408 Q390,408 424.5,435.5 Q459,463 459,523 Q459,583 424.5,610.5 Q390,638 322,638"/> 
            <glyph glyph-name="S" unicode="&#x53;" horiz-adv-x="456" d=" M364,566 Q339,613 309.5,629.5 Q280,646 248,646 Q224,646 205.5,637 Q187,628 175,613.5 Q163,599 157,580.5 Q151,562 151,544 Q151,501 173.5,475 Q196,449 230,429.5 Q264,410 303.5,393 Q343,376 377,351.5 Q411,327 433.5,291 Q456,255 456,197 Q456,150 440.5,112 Q425,74 398,47.5 Q371,21 334.5,6.5 Q298,-8 256,-8 Q212,-8 176.5,6 Q141,20 114,45.5 Q87,71 69,105.5 Q51,140 42,181 L99,215 Q108,184 120,155 Q132,126 150,103.5 Q168,81 194,67.5 Q220,54 256,54 Q313,54 350,89 Q387,124 387,195 Q387,238 364.5,266 Q342,294 308.5,314 Q275,334 236,351.5 Q197,369 163.5,392.5 Q130,416 107.5,449.5 Q85,483 85,536 Q85,575 98,606.5 Q111,638 133.5,660.5 Q156,683 185.5,695.5 Q215,708 248,708 Q286,708 313,699.5 Q340,691 359,676.5 Q378,662 392,642 Q406,622 418,600"/> 
            <glyph glyph-name="T" unicode="&#x54;" horiz-adv-x="500" d=" M16,700 L500,700 L500,638 L291,638 L291,0 L225,0 L225,638 L16,638"/> 
            <glyph glyph-name="U" unicode="&#x55;" horiz-adv-x="567" d=" M87,700 L153,700 L153,218 Q153,185 163.5,155.5 Q174,126 196,103.5 Q218,81 250.5,67.5 Q283,54 327,54 Q371,54 403.5,67.5 Q436,81 458,103.5 Q480,126 490.5,155.5 Q501,185 501,218 L501,700 L567,700 L567,224 Q567,166 547.5,122.5 Q528,79 495,50 Q462,21 418.5,6.5 Q375,-8 327,-8 Q279,-8 235.5,6.5 Q192,21 159,50 Q126,79 106.5,122.5 Q87,166 87,224"/> 
            <glyph glyph-name="V" unicode="&#x56;" horiz-adv-x="567" d=" M567,700 L322,0 L252,0 L7,700 L75,700 L287,94 L499,700"/> 
            <glyph glyph-name="W" unicode="&#x57;" horiz-adv-x="867" d=" M867,700 L675,0 L608,0 L449,524 L291,0 L224,0 L32,700 L100,700 L259,102 L420,626 L479,626 L640,102 L799,700"/> 
            <glyph glyph-name="X" unicode="&#x58;" horiz-adv-x="545" d=" M502,700 L317,386 L545,0 L476,0 L283,328 L90,0 L21,0 L249,386 L64,700 L133,700 L283,445 L433,700"/> 
            <glyph glyph-name="Y" unicode="&#x59;" horiz-adv-x="494" d=" M6,700 L83,700 L250,369 L417,700 L494,700 L283,304 L283,0 L217,0 L217,304"/> 
            <glyph glyph-name="Z" unicode="&#x5A;" horiz-adv-x="495" d=" M60,700 L488,700 L488,668 L140,62 L495,62 L495,0 L48,0 L48,32 L400,638 L60,638"/> 
            <glyph glyph-name="[" unicode="&#x5B;" horiz-adv-x="280" d=" M101,750 L280,750 L280,694 L161,694 L161,6 L280,6 L280,-50 L101,-50"/> 
            <glyph glyph-name="\" unicode="&#x5C;" horiz-adv-x="510" d=" M74,750 L510,-50 L444,-50 L8,750"/> 
            <glyph glyph-name="]" unicode="&#x5D;" horiz-adv-x="221" d=" M221,-50 L42,-50 L42,6 L161,6 L161,694 L42,694 L42,750 L221,750"/> 
            <glyph glyph-name="^" unicode="&#x5E;" horiz-adv-x="468" d=" M284,700 L468,429 L399,429 L260,642 L121,429 L52,429 L236,700"/> 
            <glyph glyph-name="_" unicode="&#x5F;" horiz-adv-x="442" d=" M33,0 L442,0 L442,-56 L33,-56"/> 
            <glyph glyph-name="`" unicode="&#x60;" horiz-adv-x="184" d=" M184,560 L135,560 L21,700 L114,700"/> 
            <glyph glyph-name="a" unicode="&#x61;" horiz-adv-x="435" d=" M122,145 Q122,98 148.5,74 Q175,50 220,50 Q244,50 271,59.5 Q298,69 320.5,90.5 Q343,112 358,147 Q373,182 373,233 L373,252 L291,252 Q204,252 163,223.5 Q122,195 122,145 M435,0 L388,0 L373,78 Q352,41 313,16.5 Q274,-8 214,-8 Q182,-8 154,0.5 Q126,9 104,27 Q82,45 69.5,74 Q57,103 57,145 Q57,229 120,269.5 Q183,310 289,310 L373,310 L373,332 Q373,398 340.5,426 Q308,454 257,454 Q205,454 176.5,426 Q148,398 137,360 L77,374 Q82,406 98,431.5 Q114,457 138,475 Q162,493 192.5,502.5 Q223,512 257,512 Q294,512 326.5,500 Q359,488 383,465.5 Q407,443 421,410 Q435,377 435,334"/> 
            <glyph glyph-name="b" unicode="&#x62;" horiz-adv-x="542" d=" M158,708 L158,433 Q186,469 231,490.5 Q276,512 317,512 Q372,512 414,491.5 Q456,471 484.5,436 Q513,401 527.5,353.5 Q542,306 542,252 Q542,198 527.5,150.5 Q513,103 484.5,68 Q456,33 414,12.5 Q372,-8 317,-8 Q292,-8 268,-2 Q244,4 222.5,14.5 Q201,25 184.5,38 Q168,51 158,66 L158,0 L96,0 L96,708 M477,252 Q477,294 466.5,331 Q456,368 435.5,395 Q415,422 384.5,438 Q354,454 314,454 Q274,454 243.5,438 Q213,422 193,395 Q173,368 162.5,331 Q152,294 152,252 Q152,209 162.5,172 Q173,135 193,108 Q213,81 243.5,65.5 Q274,50 314,50 Q354,50 384.5,65.5 Q415,81 435.5,108 Q456,135 466.5,172 Q477,209 477,252"/> 
            <glyph glyph-name="c" unicode="&#x63;" horiz-adv-x="482" d=" M482,131 Q429,-8 279,-8 Q223,-8 181.5,14 Q140,36 112,72.5 Q84,109 70,155.5 Q56,202 56,252 Q56,301 70,348 Q84,395 112,431.5 Q140,468 181.5,490 Q223,512 279,512 Q429,512 482,373 L426,351 Q406,401 371,427.5 Q336,454 279,454 Q238,454 208.5,438 Q179,422 159.5,394 Q140,366 130.5,329.5 Q121,293 121,252 Q121,211 130.5,174.5 Q140,138 159.5,110 Q179,82 208.5,66 Q238,50 279,50 Q336,50 371,76.5 Q406,103 426,153"/> 
            <glyph glyph-name="d" unicode="&#x64;" horiz-adv-x="502" d=" M502,708 L502,0 L440,0 L440,66 Q430,51 413.5,38 Q397,25 375.5,14.5 Q354,4 330,-2 Q306,-8 281,-8 Q226,-8 184,12.5 Q142,33 113.5,68 Q85,103 70.5,150.5 Q56,198 56,252 Q56,306 70.5,353.5 Q85,401 113.5,436 Q142,471 184,491.5 Q226,512 281,512 Q322,512 367,490.5 Q412,469 440,433 L440,708 M121,252 Q121,209 131.5,172 Q142,135 162.5,108 Q183,81 213.5,65.5 Q244,50 284,50 Q324,50 354.5,65.5 Q385,81 405,108 Q425,135 435.5,172 Q446,209 446,252 Q446,294 435.5,331 Q425,368 405,395 Q385,422 354.5,438 Q324,454 284,454 Q244,454 213.5,438 Q183,422 162.5,395 Q142,368 131.5,331 Q121,294 121,252"/> 
            <glyph glyph-name="e" unicode="&#x65;" horiz-adv-x="501" d=" M501,252 L121,252 Q121,208 131.5,171 Q142,134 162.5,107 Q183,80 212.5,65 Q242,50 280,50 Q338,50 372.5,75.5 Q407,101 435,158 L490,131 Q451,54 400.5,23 Q350,-8 280,-8 Q230,-8 188.5,11.5 Q147,31 117.5,65.5 Q88,100 72,148 Q56,196 56,252 Q56,308 72,356 Q88,404 117.5,438.5 Q147,473 188.5,492.5 Q230,512 280,512 Q329,512 369.5,495.5 Q410,479 439,448.5 Q468,418 484.5,375 Q501,332 501,280 M280,454 Q248,454 222.5,443 Q197,432 177.5,412.5 Q158,393 144.5,367 Q131,341 125,310 L437,310 Q428,376 388.5,415 Q349,454 280,454"/> 
            <glyph glyph-name="f" unicode="&#x66;" horiz-adv-x="346" d=" M50,504 L130,504 L130,536 Q130,625 171,666.5 Q212,708 286,708 Q305,708 320.5,704 Q336,700 346,695 L333,638 Q323,643 311,646.5 Q299,650 281,650 Q239,650 215.5,625 Q192,600 192,546 L192,504 L314,504 L314,446 L192,446 L192,0 L130,0 L130,446 L50,446"/> 
            <glyph glyph-name="g" unicode="&#x67;" horiz-adv-x="470" d=" M91,343 Q91,381 104,412.5 Q117,444 140.5,466 Q164,488 195,500 Q226,512 262,512 Q286,512 308,506 Q330,500 349,489 L439,540 L468,487 L398,448 Q415,427 424,401 Q433,375 433,343 Q433,304 420,273 Q407,242 383.5,220 Q360,198 329,186 Q298,174 262,174 Q208,174 168,198 Q145,188 136,174 Q127,160 127,142 Q127,115 146,104.5 Q165,94 189,94 L319,94 Q352,94 379.5,86.5 Q407,79 427,63 Q447,47 458.5,22 Q470,-3 470,-38 Q470,-85 454,-118 Q438,-151 410.5,-172 Q383,-193 345,-202.5 Q307,-212 263,-212 Q166,-212 110.5,-168 Q55,-124 55,-46 Q55,-9 70.5,17.5 Q86,44 107,60 Q88,71 77.5,91 Q67,111 67,142 Q67,174 85,197 Q103,220 129,232 Q112,253 101.5,281.5 Q91,310 91,343 M209,40 Q182,40 160,43 Q134,26 124.5,2 Q115,-22 115,-48 Q115,-97 151.5,-126.5 Q188,-156 263,-156 Q338,-156 374,-124.5 Q410,-93 410,-46 Q410,2 383.5,21 Q357,40 312,40 M153,343 Q153,316 162,294.5 Q171,273 186,258 Q201,243 220.5,235.5 Q240,228 262,228 Q284,228 303.5,235.5 Q323,243 338,258 Q353,273 362,294.5 Q371,316 371,343 Q371,370 362,391.5 Q353,413 338,428 Q323,443 303.5,450.5 Q284,458 262,458 Q240,458 220.5,450.5 Q201,443 186,428 Q171,413 162,391.5 Q153,370 153,343"/> 
            <glyph glyph-name="h" unicode="&#x68;" horiz-adv-x="495" d=" M495,0 L433,0 L433,338 Q433,393 406.5,423.5 Q380,454 328,454 Q293,454 262.5,437 Q232,420 208.5,389 Q185,358 171.5,314 Q158,270 158,215 L158,0 L96,0 L96,708 L158,708 L158,394 Q171,424 191,446.5 Q211,469 235,483.5 Q259,498 285.5,505 Q312,512 338,512 Q413,512 454,469 Q495,426 495,346"/> 
            <glyph glyph-name="i" unicode="&#x69;" horiz-adv-x="192" d=" M90,649 Q90,671 104.5,685.5 Q119,700 141,700 Q163,700 177.5,685.5 Q192,671 192,649 Q192,627 177.5,612.5 Q163,598 141,598 Q119,598 104.5,612.5 Q90,627 90,649 M172,504 L172,0 L110,0 L110,504"/> 
            <glyph glyph-name="j" unicode="&#x6A;" horiz-adv-x="192" d=" M172,504 L172,-64 Q172,-131 139.5,-166.5 Q107,-202 47,-212 L33,-154 Q73,-143 91.5,-122 Q110,-101 110,-55 L110,504 M90,649 Q90,671 104.5,685.5 Q119,700 141,700 Q163,700 177.5,685.5 Q192,671 192,649 Q192,627 177.5,612.5 Q163,598 141,598 Q119,598 104.5,612.5 Q90,627 90,649"/> 
            <glyph glyph-name="k" unicode="&#x6B;" horiz-adv-x="465" d=" M158,708 L158,281 L369,504 L447,504 L229,273 L465,0 L386,0 L158,265 L158,0 L96,0 L96,708"/> 
            <glyph glyph-name="l" unicode="&#x6C;" horiz-adv-x="156" d=" M156,708 L156,0 L94,0 L94,708"/> 
            <glyph glyph-name="m" unicode="&#x6D;" horiz-adv-x="762" d=" M762,0 L700,0 L700,338 Q700,395 681.5,424.5 Q663,454 610,454 Q579,454 552,437.5 Q525,421 504.5,391 Q484,361 472,318 Q460,275 460,221 L460,0 L398,0 L398,338 Q398,395 379.5,424.5 Q361,454 308,454 Q277,454 250,437.5 Q223,421 202.5,391 Q182,361 170,318 Q158,275 158,221 L158,0 L96,0 L96,504 L158,504 L158,399 Q181,449 222,480.5 Q263,512 318,512 Q376,512 410,483 Q444,454 455,400 Q480,448 524,480 Q568,512 620,512 Q695,512 728.5,470.5 Q762,429 762,346"/> 
            <glyph glyph-name="n" unicode="&#x6E;" horiz-adv-x="486" d=" M486,0 L424,0 L424,338 Q424,393 399,423.5 Q374,454 321,454 Q286,454 256.5,437.5 Q227,421 205,391 Q183,361 170.5,318 Q158,275 158,221 L158,0 L96,0 L96,504 L158,504 L158,399 Q184,449 230,480.5 Q276,512 331,512 Q403,512 444.5,469 Q486,426 486,346"/> 
            <glyph glyph-name="o" unicode="&#x6F;" horiz-adv-x="528" d=" M56,252 Q56,301 72,348 Q88,395 118.5,431.5 Q149,468 193,490 Q237,512 292,512 Q347,512 391,490 Q435,468 465.5,431.5 Q496,395 512,348 Q528,301 528,252 Q528,202 512,155.5 Q496,109 465.5,72.5 Q435,36 391,14 Q347,-8 292,-8 Q237,-8 193,14 Q149,36 118.5,72.5 Q88,109 72,155.5 Q56,202 56,252 M121,252 Q121,214 132,178 Q143,142 164.5,113.5 Q186,85 218,67.5 Q250,50 292,50 Q334,50 366,67.5 Q398,85 419.5,113.5 Q441,142 452,178 Q463,214 463,252 Q463,290 452,326 Q441,362 419.5,390.5 Q398,419 366,436.5 Q334,454 292,454 Q250,454 218,436.5 Q186,419 164.5,390.5 Q143,362 132,326 Q121,290 121,252"/> 
            <glyph glyph-name="p" unicode="&#x70;" horiz-adv-x="542" d=" M96,-204 L96,504 L158,504 L158,438 Q168,453 184.5,466 Q201,479 222.5,489.5 Q244,500 268,506 Q292,512 317,512 Q372,512 414,491.5 Q456,471 484.5,436 Q513,401 527.5,353.5 Q542,306 542,252 Q542,198 527.5,150.5 Q513,103 484.5,68 Q456,33 414,12.5 Q372,-8 317,-8 Q276,-8 231,13.5 Q186,35 158,71 L158,-204 M477,252 Q477,295 466.5,332 Q456,369 435.5,396 Q415,423 384.5,438.5 Q354,454 314,454 Q274,454 243.5,438.5 Q213,423 193,396 Q173,369 162.5,332 Q152,295 152,252 Q152,210 162.5,173 Q173,136 193,109 Q213,82 243.5,66 Q274,50 314,50 Q354,50 384.5,66 Q415,82 435.5,109 Q456,136 466.5,173 Q477,210 477,252"/> 
            <glyph glyph-name="q" unicode="&#x71;" horiz-adv-x="502" d=" M440,-204 L440,71 Q412,35 367,13.5 Q322,-8 281,-8 Q226,-8 184,12.5 Q142,33 113.5,68 Q85,103 70.5,150.5 Q56,198 56,252 Q56,306 70.5,353.5 Q85,401 113.5,436 Q142,471 184,491.5 Q226,512 281,512 Q306,512 330,506 Q354,500 375.5,489.5 Q397,479 413.5,466 Q430,453 440,438 L440,504 L502,504 L502,-204 M121,252 Q121,210 131.5,173 Q142,136 162.5,109 Q183,82 213.5,66 Q244,50 284,50 Q324,50 354.5,66 Q385,82 405,109 Q425,136 435.5,173 Q446,210 446,252 Q446,295 435.5,332 Q425,369 405,396 Q385,423 354.5,438.5 Q324,454 284,454 Q244,454 213.5,438.5 Q183,423 162.5,396 Q142,369 131.5,332 Q121,295 121,252"/> 
            <glyph glyph-name="r" unicode="&#x72;" horiz-adv-x="382" d=" M368,436 Q335,454 297,454 Q268,454 242.5,437.5 Q217,421 198.5,389 Q180,357 169,308 Q158,259 158,195 L158,0 L96,0 L96,504 L158,504 L158,414 Q181,461 218,486.5 Q255,512 306,512 Q328,512 345.5,507.5 Q363,503 382,495"/> 
            <glyph glyph-name="s" unicode="&#x73;" horiz-adv-x="392" d=" M230,512 Q278,512 311,491 Q344,470 370,434 L326,396 Q303,427 280,440.5 Q257,454 227,454 Q195,454 174,433.5 Q153,413 153,378 Q153,353 170.5,336 Q188,319 215,306 Q242,293 272.5,280.5 Q303,268 330,251.5 Q357,235 374.5,210.5 Q392,186 392,150 Q392,77 350,34.5 Q308,-8 236,-8 Q196,-8 165.5,4.5 Q135,17 112.5,36.5 Q90,56 75.5,80.5 Q61,105 54,130 L109,159 Q117,136 127.5,116 Q138,96 153,81.5 Q168,67 188,58.5 Q208,50 236,50 Q281,50 304,74 Q327,98 327,140 Q327,169 309.5,186.5 Q292,204 265.5,217.5 Q239,231 208,242.5 Q177,254 150.5,271 Q124,288 106.5,312.5 Q89,337 89,377 Q89,407 100,432 Q111,457 129.5,475 Q148,493 174,502.5 Q200,512 230,512"/> 
            <glyph glyph-name="t" unicode="&#x74;" horiz-adv-x="330" d=" M27,504 L116,504 L116,667 L178,708 L178,504 L314,504 L314,446 L178,446 L178,133 Q178,90 198,70 Q218,50 250,50 Q265,50 282,53.5 Q299,57 313,66 L330,10 Q312,0 288.5,-4 Q265,-8 242,-8 Q187,-8 151.5,27.5 Q116,63 116,143 L116,446 L27,446"/> 
            <glyph glyph-name="u" unicode="&#x75;" horiz-adv-x="480" d=" M90,504 L152,504 L152,166 Q152,111 177,80.5 Q202,50 255,50 Q289,50 319,66.5 Q349,83 371,113 Q393,143 405.5,186 Q418,229 418,283 L418,504 L480,504 L480,0 L418,0 L418,105 Q392,55 346,23.5 Q300,-8 245,-8 Q173,-8 131.5,35 Q90,78 90,158"/> 
            <glyph glyph-name="v" unicode="&#x76;" horiz-adv-x="428" d=" M428,504 L258,0 L190,0 L20,504 L85,504 L224,83 L363,504"/> 
            <glyph glyph-name="w" unicode="&#x77;" horiz-adv-x="679" d=" M679,504 L528,0 L464,0 L359,412 L254,0 L190,0 L39,504 L104,504 L222,88 L328,504 L390,504 L496,88 L614,504"/> 
            <glyph glyph-name="x" unicode="&#x78;" horiz-adv-x="427" d=" M116,504 L223,330 L330,504 L399,504 L257,275 L427,0 L362,0 L223,220 L84,0 L19,0 L189,275 L47,504"/> 
            <glyph glyph-name="y" unicode="&#x79;" horiz-adv-x="437" d=" M437,504 L187,-204 L125,-204 L198,3 L17,504 L82,504 L232,96 L372,504"/> 
            <glyph glyph-name="z" unicode="&#x7A;" horiz-adv-x="406" d=" M68,504 L395,504 L395,470 L141,58 L406,58 L406,0 L56,0 L56,30 L313,446 L68,446"/> 
            <glyph glyph-name="{" unicode="&#x7B;" horiz-adv-x="284" d=" M144,237 Q144,282 126,302 Q108,322 65,322 L65,378 Q108,378 126,398 Q144,418 144,463 L144,646 Q144,695 170,722.5 Q196,750 238,750 L284,750 L284,694 L254,694 Q204,694 204,644 L204,447 Q204,401 187,381 Q170,361 141,350 Q170,339 187,319 Q204,299 204,253 L204,56 Q204,6 254,6 L284,6 L284,-50 L238,-50 Q196,-50 170,-22.5 Q144,5 144,54 L144,237"/> 
            <glyph glyph-name="|" unicode="&#x7C;" horiz-adv-x="161" d=" M161,750 L161,-50 L101,-50 L101,750"/> 
            <glyph glyph-name="}" unicode="&#x7D;" horiz-adv-x="252" d=" M173,54 Q173,5 147,-22.5 Q121,-50 79,-50 L33,-50 L33,6 L63,6 Q113,6 113,56 L113,253 Q113,299 130,319 Q147,339 176,350 Q147,361 130,381 Q113,401 113,447 L113,644 Q113,694 63,694 L33,694 L33,750 L79,750 Q121,750 147,722.5 Q173,695 173,646 L173,463 Q173,418 191,398 Q209,378 252,378 L252,322 Q209,322 191,302 Q173,282 173,237"/> 
            <glyph glyph-name="~" unicode="&#x7E;" horiz-adv-x="517" d=" M85,320 Q108,352 139.5,375 Q171,398 207,398 Q236,398 257.5,389.5 Q279,381 298.5,371 Q318,361 338.5,352.5 Q359,344 387,344 Q413,344 436.5,356 Q460,368 477,389 L517,350 Q494,318 462.5,295 Q431,272 395,272 Q366,272 344.5,280.5 Q323,289 303.5,299 Q284,309 263.5,317.5 Q243,326 215,326 Q189,326 165.5,314 Q142,302 125,281"/> 
            <glyph glyph-name="¡" unicode="&#xA1;" horiz-adv-x="215" d=" M118,-204 L140,312 L180,312 L202,-204 M105,443 Q105,467 120.5,482.5 Q136,498 160,498 Q184,498 199.5,482.5 Q215,467 215,443 Q215,419 199.5,403.5 Q184,388 160,388 Q136,388 120.5,403.5 Q105,419 105,443"/> 
            <glyph glyph-name="¢" unicode="&#xA2;" horiz-adv-x="487" d=" M487,229 Q440,106 316,91 L316,-50 L256,-50 L256,91 Q207,97 170.5,120.5 Q134,144 109.5,179.5 Q85,215 73,259 Q61,303 61,350 Q61,396 73,440 Q85,484 109.5,520 Q134,556 170.5,579.5 Q207,603 256,609 L256,750 L316,750 L316,609 Q378,602 421,567 Q464,532 487,471 L431,449 Q411,499 376,525.5 Q341,552 284,552 Q243,552 213.5,536 Q184,520 164.5,492 Q145,464 135.5,427.5 Q126,391 126,350 Q126,309 135.5,272.5 Q145,236 164.5,208 Q184,180 213.5,164 Q243,148 284,148 Q341,148 376,174.5 Q411,201 431,251"/> 
            <glyph glyph-name="£" unicode="&#xA3;" horiz-adv-x="505" d=" M61,393 L124,393 Q114,419 106.5,446 Q99,473 99,507 Q99,603 150,655.5 Q201,708 283,708 Q351,708 397.5,670 Q444,632 468,567 L413,542 Q390,595 360.5,622.5 Q331,650 283,650 Q230,650 196.5,613.5 Q163,577 163,506 Q163,472 170.5,445 Q178,418 186,393 L350,393 L350,335 L204,335 Q209,317 211.5,298 Q214,279 214,257 Q214,233 207.5,206.5 Q201,180 190.5,155 Q180,130 165,108.5 Q150,87 134,72 Q154,83 177,88.5 Q200,94 219,94 Q243,94 261.5,86.5 Q280,79 296,70 Q312,61 326.5,53.5 Q341,46 357,46 Q374,46 387,50 Q400,54 411,64 Q422,74 433,90 Q444,106 458,130 L505,103 Q473,42 440.5,17 Q408,-8 359,-8 Q331,-8 311.5,-1 Q292,6 276,15 Q260,24 243.5,31 Q227,38 205,38 Q169,38 145.5,25 Q122,12 97,-8 L48,47 Q105,102 131.5,152.5 Q158,203 158,259 Q158,280 154.5,298.5 Q151,317 145,335 L61,335"/> 
            <glyph glyph-name="¤" unicode="&#xA4;" horiz-adv-x="517" d=" M116,185 Q98,211 88,241.5 Q78,272 78,307 Q78,342 88,372.5 Q98,403 116,429 L29,496 L84,551 L150,466 Q175,486 206,497.5 Q237,509 273,509 Q309,509 340,497.5 Q371,486 396,466 L462,551 L517,496 L430,429 Q448,403 458,372.5 Q468,342 468,307 Q468,272 458,241.5 Q448,211 430,185 L517,118 L462,63 L396,148 Q371,128 340,116.5 Q309,105 273,105 Q237,105 206,116.5 Q175,128 150,148 L84,63 L29,118 M134,307 Q134,274 144,247 Q154,220 172,200.5 Q190,181 215.5,170 Q241,159 273,159 Q304,159 330,170 Q356,181 374,200.5 Q392,220 402,247 Q412,274 412,307 Q412,340 402,367 Q392,394 374,413.5 Q356,433 330,444 Q304,455 273,455 Q241,455 215.5,444 Q190,433 172,413.5 Q154,394 144,367 Q134,340 134,307"/> 
            <glyph glyph-name="¥" unicode="&#xA5;" horiz-adv-x="487" d=" M90,700 L250,371 L410,700 L487,700 L312,360 L444,360 L444,304 L283,304 L283,217 L444,217 L444,161 L283,161 L283,0 L217,0 L217,161 L56,161 L56,217 L217,217 L217,304 L56,304 L56,360 L188,360 L13,700"/> 
            <glyph glyph-name="¦" unicode="&#xA6;" horiz-adv-x="161" d=" M161,299 L161,-50 L101,-50 L101,299 M101,401 L101,750 L161,750 L161,401"/> 
            <glyph glyph-name="§" unicode="&#xA7;" horiz-adv-x="470" d=" M470,212 Q470,134 389,83 Q410,62 424,35.5 Q438,9 438,-31 Q438,-75 424,-109 Q410,-143 386.5,-166 Q363,-189 332.5,-200.5 Q302,-212 269,-212 Q197,-212 151,-175 Q105,-138 88,-66 L144,-47 Q158,-93 188,-123.5 Q218,-154 269,-154 Q313,-154 343.5,-124 Q374,-94 374,-33 Q374,-2 357.5,20 Q341,42 313.5,60 Q286,78 248.5,95.5 Q211,113 169,137 Q119,165 93.5,197 Q68,229 68,284 Q68,362 149,413 Q128,434 114,460.5 Q100,487 100,527 Q100,571 114,605 Q128,639 151.5,662 Q175,685 205.5,696.5 Q236,708 269,708 Q341,708 387,671 Q433,634 450,562 L394,543 Q380,589 350,619.5 Q320,650 269,650 Q225,650 194.5,620 Q164,590 164,529 Q164,497 180.5,475.5 Q197,454 224.5,436 Q252,418 289.5,400.5 Q327,383 369,359 Q419,331 444.5,299 Q470,267 470,212 M339,121 Q372,137 391,160.5 Q410,184 410,213 Q410,240 393,260.5 Q376,281 347,300 Q318,319 280,336.5 Q242,354 199,375 Q166,359 147,335.5 Q128,312 128,283 Q128,256 145,235.5 Q162,215 191,196 Q220,177 258,159.5 Q296,142 339,121"/> 
            <glyph glyph-name="¨" unicode="&#xA8;" horiz-adv-x="273" d=" M21,650 Q21,671 35,685.5 Q49,700 70,700 Q91,700 105,685.5 Q119,671 119,650 Q119,630 105,616 Q91,602 70,602 Q49,602 35,616 Q21,630 21,650 M175,650 Q175,671 189,685.5 Q203,700 223,700 Q244,700 258.5,685.5 Q273,671 273,650 Q273,630 258.5,616 Q244,602 223,602 Q203,602 189,616 Q175,630 175,650"/> 
            <glyph glyph-name="©" unicode="&#xA9;" horiz-adv-x="827" d=" M75,350 Q75,433 103,504.5 Q131,576 181,628.5 Q231,681 300,710.5 Q369,740 451,740 Q533,740 602,710.5 Q671,681 721,628.5 Q771,576 799,504.5 Q827,433 827,350 Q827,267 799,195.5 Q771,124 721,71.5 Q671,19 602,-10.5 Q533,-40 451,-40 Q369,-40 300,-10.5 Q231,19 181,71.5 Q131,124 103,195.5 Q75,267 75,350 M137,350 Q137,281 159.5,221 Q182,161 223,117 Q264,73 322,47.5 Q380,22 451,22 Q522,22 580,47.5 Q638,73 679,117 Q720,161 742.5,221 Q765,281 765,350 Q765,419 742.5,479 Q720,539 679,583 Q638,627 580,652.5 Q522,678 451,678 Q380,678 322,652.5 Q264,627 223,583 Q182,539 159.5,479 Q137,419 137,350 M618,266 Q602,202 557,168 Q512,134 451,134 Q419,134 385,146 Q351,158 322,184 Q293,210 274.5,251 Q256,292 256,350 Q256,408 274.5,449 Q293,490 322,516 Q351,542 385,554 Q419,566 451,566 Q512,566 557,532 Q602,498 618,434 L565,420 Q551,464 525,488 Q499,512 451,512 Q394,512 354.5,472 Q315,432 315,350 Q315,309 325.5,278.5 Q336,248 354.5,228 Q373,208 397.5,198 Q422,188 451,188 Q499,188 525,212 Q551,236 565,280"/> 
            <glyph glyph-name="ª" unicode="&#xAA;" horiz-adv-x="363" d=" M363,300 L326,300 L316,363 Q299,334 268,315 Q237,296 189,296 Q164,296 142,303 Q120,310 103,325 Q86,340 76,362.5 Q66,385 66,416 Q66,482 115,514 Q164,546 248,546 L314,546 L314,563 Q314,615 288,635.5 Q262,656 223,656 Q182,656 160.5,635 Q139,614 130,584 L82,596 Q93,649 131,676.5 Q169,704 223,704 Q253,704 278.5,696.5 Q304,689 323,672.5 Q342,656 352.5,629 Q363,602 363,564 M122,416 Q122,379 142,361.5 Q162,344 194,344 Q213,344 234,351 Q255,358 273,374.5 Q291,391 302.5,418 Q314,445 314,485 L314,500 L250,500 Q181,500 151.5,476.5 Q122,453 122,416"/> 
            <glyph glyph-name="«" unicode="&#xAB;" horiz-adv-x="544" d=" M50,331 L313,526 L313,458 L115,310 L313,162 L313,94 L50,289 M281,331 L544,526 L544,458 L346,310 L544,162 L544,94 L281,289"/> 
            <glyph glyph-name="¬" unicode="&#xAC;" horiz-adv-x="493" d=" M70,380 L493,380 L493,142 L429,142 L429,322 L70,322"/> 
            <glyph glyph-name="®" unicode="&#xAE;" horiz-adv-x="827" d=" M75,350 Q75,433 103,504.5 Q131,576 181,628.5 Q231,681 300,710.5 Q369,740 451,740 Q533,740 602,710.5 Q671,681 721,628.5 Q771,576 799,504.5 Q827,433 827,350 Q827,267 799,195.5 Q771,124 721,71.5 Q671,19 602,-10.5 Q533,-40 451,-40 Q369,-40 300,-10.5 Q231,19 181,71.5 Q131,124 103,195.5 Q75,267 75,350 M137,350 Q137,281 159.5,221 Q182,161 223,117 Q264,73 322,47.5 Q380,22 451,22 Q522,22 580,47.5 Q638,73 679,117 Q720,161 742.5,221 Q765,281 765,350 Q765,419 742.5,479 Q720,539 679,583 Q638,627 580,652.5 Q522,678 451,678 Q380,678 322,652.5 Q264,627 223,583 Q182,539 159.5,479 Q137,419 137,350 M435,319 L374,319 L374,137 L315,137 L315,563 L459,563 Q522,563 557,529 Q592,495 592,441 Q592,394 564.5,362.5 Q537,331 496,323 L623,137 L561,137 M374,509 L374,373 L459,373 Q496,373 514.5,391 Q533,409 533,441 Q533,473 514.5,491 Q496,509 459,509"/> 
            <glyph glyph-name="¯" unicode="&#xAF;" horiz-adv-x="256" d=" M15,700 L256,700 L256,644 L15,644"/> 
            <glyph glyph-name="°" unicode="&#xB0;" horiz-adv-x="285" d=" M67,593 Q67,641 97,672.5 Q127,704 176,704 Q225,704 255,672.5 Q285,641 285,593 Q285,545 255,513.5 Q225,482 176,482 Q127,482 97,513.5 Q67,545 67,593 M115,593 Q115,565 132,547.5 Q149,530 176,530 Q203,530 220,547.5 Q237,565 237,593 Q237,621 220,638.5 Q203,656 176,656 Q149,656 132,638.5 Q115,621 115,593"/> 
            <glyph glyph-name="±" unicode="&#xB1;" horiz-adv-x="476" d=" M732,370 L555,370 L555,193 L499,193 L499,370 L322,370 L322,426 L499,426 L499,602 L555,602 L555,426 L732,426 M65602,65592 L66012,65592 L66012,65536 L65602,65536"/> 
            <glyph glyph-name="²" unicode="&#xB2;" horiz-adv-x="316" d=" M65,319 L212,502 Q235,530 243.5,549.5 Q252,569 252,592 Q252,621 236.5,637.5 Q221,654 190,654 Q161,654 145.5,632 Q130,610 126,578 L72,592 Q77,640 108,672 Q139,704 190,704 Q245,704 275.5,672.5 Q306,641 306,592 Q306,536 267,487 L156,350 L316,350 L316,300 L65,300"/> 
            <glyph glyph-name="³" unicode="&#xB3;" horiz-adv-x="320" d=" M119,421 Q123,387 141.5,365.5 Q160,344 194,344 Q232,344 249,368.5 Q266,393 266,428 Q266,463 249,486 Q232,509 194,509 Q182,509 173.5,506 Q165,503 159,499 L133,534 L222,652 L87,652 L87,700 L300,700 L300,683 L200,548 Q202,549 209,549.5 Q216,550 218,550 Q262,550 291,517.5 Q320,485 320,428 Q320,402 312.5,378 Q305,354 289.5,336 Q274,318 250,307 Q226,296 194,296 Q142,296 106,326.5 Q70,357 65,413"/> 
            <glyph glyph-name="´" unicode="&#xB4;" horiz-adv-x="188" d=" M95,700 L188,700 L74,560 L25,560"/> 
            <glyph glyph-name="µ" unicode="&#xB5;" horiz-adv-x="480" d=" M90,504 L152,504 L152,166 Q152,111 177,80.5 Q202,50 255,50 Q289,50 319,66.5 Q349,83 371,113 Q393,143 405.5,186 Q418,229 418,283 L418,504 L480,504 L480,0 L418,0 L418,105 Q392,55 346,23.5 Q300,-8 245,-8 Q190,-8 152,18 L152,-204 L90,-204"/> 
            <glyph glyph-name="¶" unicode="&#xB6;" horiz-adv-x="583" d=" M61,527 Q61,563 74.5,594.5 Q88,626 111.5,649.5 Q135,673 166.5,686.5 Q198,700 234,700 L583,700 L583,638 L525,638 L525,-204 L459,-204 L459,638 L300,638 L300,-204 L234,-204 L234,354 Q198,354 166.5,367.5 Q135,381 111.5,404.5 Q88,428 74.5,459.5 Q61,491 61,527"/> 
            <glyph glyph-name="·" unicode="&#xB7;" horiz-adv-x="193" d=" M91,349 Q91,371 105,385.5 Q119,400 142,400 Q164,400 178.5,385.5 Q193,371 193,349 Q193,326 178.5,312 Q164,298 142,298 Q119,298 105,312 Q91,326 91,349"/> 
            <glyph glyph-name="¸" unicode="&#xB8;" horiz-adv-x="164" d=" M83,-214 L11,-183 L109,-60 L164,-60"/> 
            <glyph glyph-name="¹" unicode="&#xB9;" horiz-adv-x="195" d=" M195,700 L195,300 L145,300 L145,626 L60,585 L60,641 L179,700"/> 
            <glyph glyph-name="º" unicode="&#xBA;" horiz-adv-x="441" d=" M71,500 Q71,539 83.5,575.5 Q96,612 120,640.5 Q144,669 178.5,686.5 Q213,704 256,704 Q299,704 333.5,686.5 Q368,669 392,640.5 Q416,612 428.5,575.5 Q441,539 441,500 Q441,461 428.5,424.5 Q416,388 392,359.5 Q368,331 333.5,313.5 Q299,296 256,296 Q213,296 178.5,313.5 Q144,331 120,359.5 Q96,388 83.5,424.5 Q71,461 71,500 M125,500 Q125,470 133,442 Q141,414 157.5,392.5 Q174,371 198.5,357.5 Q223,344 256,344 Q289,344 313.5,357.5 Q338,371 354.5,392.5 Q371,414 379,442 Q387,470 387,500 Q387,530 379,558 Q371,586 354.5,607.5 Q338,629 313.5,642.5 Q289,656 256,656 Q223,656 198.5,642.5 Q174,629 157.5,607.5 Q141,586 133,558 Q125,530 125,500"/> 
            <glyph glyph-name="»" unicode="&#xBB;" horiz-adv-x="554" d=" M554,289 L291,94 L291,162 L489,310 L291,458 L291,526 L554,331 M323,289 L60,94 L60,162 L258,310 L60,458 L60,526 L323,331"/> 
            <glyph glyph-name="¼" unicode="&#xBC;" horiz-adv-x="701" d=" M679,691 L137,-24 L95,9 L637,724 M215,700 L215,300 L165,300 L165,626 L80,585 L80,641 L199,700 M599,65619 L428,65619 L428,65636 L590,65936 L649,65936 L649,65667 L701,65667 L701,65619 L649,65619 L649,65536 L599,65536 M599,65667 L599,65862 L497,65667"/> 
            <glyph glyph-name="½" unicode="&#xBD;" horiz-adv-x="753" d=" M679,691 L137,-24 L95,9 L637,724 M215,700 L215,300 L165,300 L165,626 L80,585 L80,641 L199,700 M502,65555 L649,65738 Q672,65766 680.5,65785.5 Q689,65805 689,65828 Q689,65857 673.5,65873.5 Q658,65890 627,65890 Q598,65890 582.5,65868 Q567,65846 563,65814 L509,65828 Q514,65876 545,65908 Q576,65940 627,65940 Q682,65940 712.5,65908.5 Q743,65877 743,65828 Q743,65772 704,65723 L593,65586 L753,65586 L753,65536 L502,65536"/> 
            <glyph glyph-name="¾" unicode="&#xBE;" horiz-adv-x="751" d=" M751,691 L209,-24 L167,9 L709,724 M119,421 Q123,387 141.5,365.5 Q160,344 194,344 Q232,344 249,368.5 Q266,393 266,428 Q266,463 249,486 Q232,509 194,509 Q182,509 173.5,506 Q165,503 159,499 L133,534 L222,652 L87,652 L87,700 L300,700 L300,683 L200,548 Q202,549 209,549.5 Q216,550 218,550 Q262,550 291,517.5 Q320,485 320,428 Q320,402 312.5,378 Q305,354 289.5,336 Q274,318 250,307 Q226,296 194,296 Q142,296 106,326.5 Q70,357 65,413 M644,65619 L473,65619 L473,65636 L635,65936 L694,65936 L694,65667 L746,65667 L746,65619 L694,65619 L694,65536 L644,65536 M644,65667 L644,65862 L542,65667"/> 
            <glyph glyph-name="¿" unicode="&#xBF;" horiz-adv-x="388" d=" M265,443 Q265,419 249.5,403.5 Q234,388 210,388 Q186,388 170.5,403.5 Q155,419 155,443 Q155,467 170.5,482.5 Q186,498 210,498 Q234,498 249.5,482.5 Q265,467 265,443 M85,194 Q100,248 132,273.5 Q164,299 212,299 Q236,299 258.5,292 Q281,285 298,270 Q315,255 325.5,232 Q336,209 336,178 Q336,98 248,50 L166,5 Q140,-9 127,-26 Q114,-43 114,-69 Q114,-109 139,-131.5 Q164,-154 212,-154 Q257,-154 284.5,-128.5 Q312,-103 325,-52 L388,-63 Q376,-131 330.5,-171.5 Q285,-212 205,-212 Q136,-212 93,-173.5 Q50,-135 50,-72 Q50,-33 70.5,-3 Q91,27 137,52 L209,91 Q244,110 259,130 Q274,150 274,180 Q274,208 258.5,224.5 Q243,241 214,241 Q184,241 165,226 Q146,211 135,175"/> 
            <glyph glyph-name="À" unicode="&#xC0;" horiz-adv-x="574" d=" M321,700 L574,0 L506,0 L436,199 L148,199 L78,0 L10,0 L263,700 M169,261 L415,261 L292,610 M332,756 L283,756 L169,896 L262,896"/> 
            <glyph glyph-name="Á" unicode="&#xC1;" horiz-adv-x="574" d=" M321,700 L574,0 L506,0 L436,199 L148,199 L78,0 L10,0 L263,700 M169,261 L415,261 L292,610 M312,896 L405,896 L291,756 L242,756"/> 
            <glyph glyph-name="Â" unicode="&#xC2;" horiz-adv-x="574" d=" M321,700 L574,0 L506,0 L436,199 L148,199 L78,0 L10,0 L263,700 M169,261 L415,261 L292,610 M281,913 L303,913 L447,762 L375,762 L292,851 L209,762 L137,762"/> 
            <glyph glyph-name="Ã" unicode="&#xC3;" horiz-adv-x="574" d=" M321,700 L574,0 L506,0 L436,199 L148,199 L78,0 L10,0 L263,700 M169,261 L415,261 L292,610 M124,820 Q141,852 167,870.5 Q193,889 223,889 Q248,889 265,882.5 Q282,876 295.5,868.5 Q309,861 322.5,854.5 Q336,848 354,848 Q377,848 392,857.5 Q407,867 421,884 L461,853 Q444,821 418,802.5 Q392,784 362,784 Q337,784 320,790.5 Q303,797 289.5,804.5 Q276,812 262.5,818.5 Q249,825 231,825 Q208,825 193,815.5 Q178,806 164,789"/> 
            <glyph glyph-name="Ä" unicode="&#xC4;" horiz-adv-x="574" d=" M321,700 L574,0 L506,0 L436,199 L148,199 L78,0 L10,0 L263,700 M169,261 L415,261 L292,610 M166,846 Q166,867 180,881.5 Q194,896 215,896 Q236,896 250,881.5 Q264,867 264,846 Q264,826 250,812 Q236,798 215,798 Q194,798 180,812 Q166,826 166,846 M320,846 Q320,867 334,881.5 Q348,896 368,896 Q389,896 403.5,881.5 Q418,867 418,846 Q418,826 403.5,812 Q389,798 368,798 Q348,798 334,812 Q320,826 320,846"/> 
            <glyph glyph-name="Å" unicode="&#xC5;" horiz-adv-x="574" d=" M321,700 L574,0 L506,0 L436,199 L148,199 L78,0 L10,0 L263,700 M169,261 L415,261 L292,610 M198,849 Q198,891 225.5,919 Q253,947 295,947 Q338,947 365,919 Q392,891 392,849 Q392,809 365,782 Q338,755 295,755 Q253,755 225.5,782 Q198,809 198,849 M244,850 Q244,827 258,812.5 Q272,798 295,798 Q318,798 332,812.5 Q346,827 346,850 Q346,873 332,888.5 Q318,904 295,904 Q272,904 258,888.5 Q244,873 244,850"/> 
            <glyph glyph-name="Æ" unicode="&#xC6;" horiz-adv-x="759" d=" M749,700 L749,638 L420,638 L420,404 L689,404 L689,342 L420,342 L420,62 L759,62 L759,0 L354,0 L354,199 L163,199 L76,0 L7,0 L314,700 M190,261 L354,261 L354,610 L343,610"/> 
            <glyph glyph-name="Ç" unicode="&#xC7;" horiz-adv-x="632" d=" M632,192 Q606,100 537.5,46 Q469,-8 368,-8 Q309,-8 253,14 Q197,36 154,80 Q111,124 85,191.5 Q59,259 59,350 Q59,441 85,508.5 Q111,576 154.5,620 Q198,664 253.5,686 Q309,708 368,708 Q469,708 537.5,654 Q606,600 632,508 L567,489 Q547,562 498,604 Q449,646 368,646 Q315,646 271,626.5 Q227,607 195.5,569.5 Q164,532 146,477 Q128,422 128,350 Q128,278 146,223 Q164,168 195.5,130.5 Q227,93 271,73.5 Q315,54 368,54 Q449,54 498,96 Q547,138 567,211 M343,-214 L271,-183 L369,-60 L424,-60"/> 
            <glyph glyph-name="È" unicode="&#xC8;" horiz-adv-x="506" d=" M496,700 L496,638 L167,638 L167,404 L436,404 L436,342 L167,342 L167,62 L506,62 L506,0 L101,0 L101,700 M358,756 L309,756 L195,896 L288,896"/> 
            <glyph glyph-name="É" unicode="&#xC9;" horiz-adv-x="506" d=" M496,700 L496,638 L167,638 L167,404 L436,404 L436,342 L167,342 L167,62 L506,62 L506,0 L101,0 L101,700 M316,896 L409,896 L295,756 L246,756"/> 
            <glyph glyph-name="Ê" unicode="&#xCA;" horiz-adv-x="506" d=" M496,700 L496,638 L167,638 L167,404 L436,404 L436,342 L167,342 L167,62 L506,62 L506,0 L101,0 L101,700 M297,913 L319,913 L463,762 L391,762 L308,851 L225,762 L153,762"/> 
            <glyph glyph-name="Ë" unicode="&#xCB;" horiz-adv-x="506" d=" M496,700 L496,638 L167,638 L167,404 L436,404 L436,342 L167,342 L167,62 L506,62 L506,0 L101,0 L101,700 M183,846 Q183,867 197,881.5 Q211,896 232,896 Q253,896 267,881.5 Q281,867 281,846 Q281,826 267,812 Q253,798 232,798 Q211,798 197,812 Q183,826 183,846 M337,846 Q337,867 351,881.5 Q365,896 385,896 Q406,896 420.5,881.5 Q435,867 435,846 Q435,826 420.5,812 Q406,798 385,798 Q365,798 351,812 Q337,826 337,846"/> 
            <glyph glyph-name="Ì" unicode="&#xCC;" horiz-adv-x="182" d=" M167,0 L101,0 L101,700 L167,700 M65718,756 L65669,756 L65555,896 L65648,896"/> 
            <glyph glyph-name="Í" unicode="&#xCD;" horiz-adv-x="249" d=" M167,0 L101,0 L101,700 L167,700 M156,896 L249,896 L135,756 L86,756"/> 
            <glyph glyph-name="Î" unicode="&#xCE;" horiz-adv-x="289" d=" M167,0 L101,0 L101,700 L167,700 M65659,913 L65681,913 L65825,762 L65753,762 L65670,851 L65587,762 L65515,762"/> 
            <glyph glyph-name="Ï" unicode="&#xCF;" horiz-adv-x="260" d=" M167,0 L101,0 L101,700 L167,700 M65544,846 Q65544,867 65558,881.5 Q65572,896 65593,896 Q65614,896 65628,881.5 Q65642,867 65642,846 Q65642,826 65628,812 Q65614,798 65593,798 Q65572,798 65558,812 Q65544,826 65544,846 M65698,846 Q65698,867 65712,881.5 Q65726,896 65746,896 Q65767,896 65781.5,881.5 Q65796,867 65796,846 Q65796,826 65781.5,812 Q65767,798 65746,798 Q65726,798 65712,812 Q65698,826 65698,846"/> 
            <glyph glyph-name="Ð" unicode="&#xD0;" horiz-adv-x="628" d=" M42,381 L126,381 L126,700 L310,700 Q377,700 435.5,676 Q494,652 536.5,607 Q579,562 603.5,497 Q628,432 628,350 Q628,268 603.5,203 Q579,138 536.5,93 Q494,48 435.5,24 Q377,0 310,0 L126,0 L126,319 L42,319 M192,638 L192,381 L276,381 L276,319 L192,319 L192,62 L311,62 Q359,62 404,78.5 Q449,95 483.5,130.5 Q518,166 538.5,220.5 Q559,275 559,350 Q559,425 538.5,479.5 Q518,534 483.5,569.5 Q449,605 404,621.5 Q359,638 311,638"/> 
            <glyph glyph-name="Ñ" unicode="&#xD1;" horiz-adv-x="592" d=" M592,700 L592,0 L514,0 L167,593 L167,0 L101,0 L101,700 L179,700 L526,105 L526,700 M178,820 Q195,852 221,870.5 Q247,889 277,889 Q302,889 319,882.5 Q336,876 349.5,868.5 Q363,861 376.5,854.5 Q390,848 408,848 Q431,848 446,857.5 Q461,867 475,884 L515,853 Q498,821 472,802.5 Q446,784 416,784 Q391,784 374,790.5 Q357,797 343.5,804.5 Q330,812 316.5,818.5 Q303,825 285,825 Q262,825 247,815.5 Q232,806 218,789"/> 
            <glyph glyph-name="Ò" unicode="&#xD2;" horiz-adv-x="673" d=" M366,708 Q427,708 483,683.5 Q539,659 581,612.5 Q623,566 648,499.5 Q673,433 673,350 Q673,267 648,200.5 Q623,134 581,87.5 Q539,41 483,16.5 Q427,-8 366,-8 Q304,-8 248.5,16.5 Q193,41 151,87.5 Q109,134 84,200.5 Q59,267 59,350 Q59,433 84,499.5 Q109,566 151,612.5 Q193,659 248.5,683.5 Q304,708 366,708 M366,646 Q317,646 273.5,627.5 Q230,609 198,571.5 Q166,534 147,478.5 Q128,423 128,350 Q128,276 147,221 Q166,166 198,128.5 Q230,91 273.5,72.5 Q317,54 366,54 Q415,54 458.5,72.5 Q502,91 534,128.5 Q566,166 585,221 Q604,276 604,350 Q604,423 585,478.5 Q566,534 534,571.5 Q502,609 458.5,627.5 Q415,646 366,646 M411,756 L362,756 L248,896 L341,896"/> 
            <glyph glyph-name="Ó" unicode="&#xD3;" horiz-adv-x="673" d=" M366,708 Q427,708 483,683.5 Q539,659 581,612.5 Q623,566 648,499.5 Q673,433 673,350 Q673,267 648,200.5 Q623,134 581,87.5 Q539,41 483,16.5 Q427,-8 366,-8 Q304,-8 248.5,16.5 Q193,41 151,87.5 Q109,134 84,200.5 Q59,267 59,350 Q59,433 84,499.5 Q109,566 151,612.5 Q193,659 248.5,683.5 Q304,708 366,708 M366,646 Q317,646 273.5,627.5 Q230,609 198,571.5 Q166,534 147,478.5 Q128,423 128,350 Q128,276 147,221 Q166,166 198,128.5 Q230,91 273.5,72.5 Q317,54 366,54 Q415,54 458.5,72.5 Q502,91 534,128.5 Q566,166 585,221 Q604,276 604,350 Q604,423 585,478.5 Q566,534 534,571.5 Q502,609 458.5,627.5 Q415,646 366,646 M376,896 L469,896 L355,756 L306,756"/> 
            <glyph glyph-name="Ô" unicode="&#xD4;" horiz-adv-x="673" d=" M366,708 Q427,708 483,683.5 Q539,659 581,612.5 Q623,566 648,499.5 Q673,433 673,350 Q673,267 648,200.5 Q623,134 581,87.5 Q539,41 483,16.5 Q427,-8 366,-8 Q304,-8 248.5,16.5 Q193,41 151,87.5 Q109,134 84,200.5 Q59,267 59,350 Q59,433 84,499.5 Q109,566 151,612.5 Q193,659 248.5,683.5 Q304,708 366,708 M366,646 Q317,646 273.5,627.5 Q230,609 198,571.5 Q166,534 147,478.5 Q128,423 128,350 Q128,276 147,221 Q166,166 198,128.5 Q230,91 273.5,72.5 Q317,54 366,54 Q415,54 458.5,72.5 Q502,91 534,128.5 Q566,166 585,221 Q604,276 604,350 Q604,423 585,478.5 Q566,534 534,571.5 Q502,609 458.5,627.5 Q415,646 366,646 M355,913 L377,913 L521,762 L449,762 L366,851 L283,762 L211,762"/> 
            <glyph glyph-name="Õ" unicode="&#xD5;" horiz-adv-x="673" d=" M366,708 Q427,708 483,683.5 Q539,659 581,612.5 Q623,566 648,499.5 Q673,433 673,350 Q673,267 648,200.5 Q623,134 581,87.5 Q539,41 483,16.5 Q427,-8 366,-8 Q304,-8 248.5,16.5 Q193,41 151,87.5 Q109,134 84,200.5 Q59,267 59,350 Q59,433 84,499.5 Q109,566 151,612.5 Q193,659 248.5,683.5 Q304,708 366,708 M366,646 Q317,646 273.5,627.5 Q230,609 198,571.5 Q166,534 147,478.5 Q128,423 128,350 Q128,276 147,221 Q166,166 198,128.5 Q230,91 273.5,72.5 Q317,54 366,54 Q415,54 458.5,72.5 Q502,91 534,128.5 Q566,166 585,221 Q604,276 604,350 Q604,423 585,478.5 Q566,534 534,571.5 Q502,609 458.5,627.5 Q415,646 366,646 M198,820 Q215,852 241,870.5 Q267,889 297,889 Q322,889 339,882.5 Q356,876 369.5,868.5 Q383,861 396.5,854.5 Q410,848 428,848 Q451,848 466,857.5 Q481,867 495,884 L535,853 Q518,821 492,802.5 Q466,784 436,784 Q411,784 394,790.5 Q377,797 363.5,804.5 Q350,812 336.5,818.5 Q323,825 305,825 Q282,825 267,815.5 Q252,806 238,789"/> 
            <glyph glyph-name="Ö" unicode="&#xD6;" horiz-adv-x="673" d=" M366,708 Q427,708 483,683.5 Q539,659 581,612.5 Q623,566 648,499.5 Q673,433 673,350 Q673,267 648,200.5 Q623,134 581,87.5 Q539,41 483,16.5 Q427,-8 366,-8 Q304,-8 248.5,16.5 Q193,41 151,87.5 Q109,134 84,200.5 Q59,267 59,350 Q59,433 84,499.5 Q109,566 151,612.5 Q193,659 248.5,683.5 Q304,708 366,708 M366,646 Q317,646 273.5,627.5 Q230,609 198,571.5 Q166,534 147,478.5 Q128,423 128,350 Q128,276 147,221 Q166,166 198,128.5 Q230,91 273.5,72.5 Q317,54 366,54 Q415,54 458.5,72.5 Q502,91 534,128.5 Q566,166 585,221 Q604,276 604,350 Q604,423 585,478.5 Q566,534 534,571.5 Q502,609 458.5,627.5 Q415,646 366,646 M240,846 Q240,867 254,881.5 Q268,896 289,896 Q310,896 324,881.5 Q338,867 338,846 Q338,826 324,812 Q310,798 289,798 Q268,798 254,812 Q240,826 240,846 M394,846 Q394,867 408,881.5 Q422,896 442,896 Q463,896 477.5,881.5 Q492,867 492,846 Q492,826 477.5,812 Q463,798 442,798 Q422,798 408,812 Q394,826 394,846"/> 
            <glyph glyph-name="×" unicode="&#xD7;" horiz-adv-x="455" d=" M415,123 L262,276 L108,123 L69,162 L222,316 L69,469 L108,509 L262,355 L414,508 L454,468 L301,316 L455,162"/> 
            <glyph glyph-name="Ø" unicode="&#xD8;" horiz-adv-x="673" d=" M658,681 L594,598 Q631,552 652,490 Q673,428 673,350 Q673,267 648,200.5 Q623,134 581,87.5 Q539,41 483,16.5 Q427,-8 366,-8 Q314,-8 266,9.5 Q218,27 179,60 L120,-16 L74,19 L138,102 Q101,148 80,210 Q59,272 59,350 Q59,433 84,499.5 Q109,566 151,612.5 Q193,659 248.5,683.5 Q304,708 366,708 Q418,708 466,690.5 Q514,673 553,640 L612,716 M366,646 Q317,646 273.5,627.5 Q230,609 198,571.5 Q166,534 147,478.5 Q128,423 128,350 Q128,287 141.5,238.5 Q155,190 178,154 L515,591 Q454,646 366,646 M604,350 Q604,413 590.5,461.5 Q577,510 554,546 L217,109 Q278,54 366,54 Q415,54 458.5,72.5 Q502,91 534,128.5 Q566,166 585,221 Q604,276 604,350"/> 
            <glyph glyph-name="Ù" unicode="&#xD9;" horiz-adv-x="567" d=" M87,700 L153,700 L153,218 Q153,185 163.5,155.5 Q174,126 196,103.5 Q218,81 250.5,67.5 Q283,54 327,54 Q371,54 403.5,67.5 Q436,81 458,103.5 Q480,126 490.5,155.5 Q501,185 501,218 L501,700 L567,700 L567,224 Q567,166 547.5,122.5 Q528,79 495,50 Q462,21 418.5,6.5 Q375,-8 327,-8 Q279,-8 235.5,6.5 Q192,21 159,50 Q126,79 106.5,122.5 Q87,166 87,224 M383,756 L334,756 L220,896 L313,896"/> 
            <glyph glyph-name="Ú" unicode="&#xDA;" horiz-adv-x="567" d=" M87,700 L153,700 L153,218 Q153,185 163.5,155.5 Q174,126 196,103.5 Q218,81 250.5,67.5 Q283,54 327,54 Q371,54 403.5,67.5 Q436,81 458,103.5 Q480,126 490.5,155.5 Q501,185 501,218 L501,700 L567,700 L567,224 Q567,166 547.5,122.5 Q528,79 495,50 Q462,21 418.5,6.5 Q375,-8 327,-8 Q279,-8 235.5,6.5 Q192,21 159,50 Q126,79 106.5,122.5 Q87,166 87,224 M351,896 L444,896 L330,756 L281,756"/> 
            <glyph glyph-name="Û" unicode="&#xDB;" horiz-adv-x="567" d=" M87,700 L153,700 L153,218 Q153,185 163.5,155.5 Q174,126 196,103.5 Q218,81 250.5,67.5 Q283,54 327,54 Q371,54 403.5,67.5 Q436,81 458,103.5 Q480,126 490.5,155.5 Q501,185 501,218 L501,700 L567,700 L567,224 Q567,166 547.5,122.5 Q528,79 495,50 Q462,21 418.5,6.5 Q375,-8 327,-8 Q279,-8 235.5,6.5 Q192,21 159,50 Q126,79 106.5,122.5 Q87,166 87,224 M316,913 L338,913 L482,762 L410,762 L327,851 L244,762 L172,762"/> 
            <glyph glyph-name="Ü" unicode="&#xDC;" horiz-adv-x="567" d=" M87,700 L153,700 L153,218 Q153,185 163.5,155.5 Q174,126 196,103.5 Q218,81 250.5,67.5 Q283,54 327,54 Q371,54 403.5,67.5 Q436,81 458,103.5 Q480,126 490.5,155.5 Q501,185 501,218 L501,700 L567,700 L567,224 Q567,166 547.5,122.5 Q528,79 495,50 Q462,21 418.5,6.5 Q375,-8 327,-8 Q279,-8 235.5,6.5 Q192,21 159,50 Q126,79 106.5,122.5 Q87,166 87,224 M201,846 Q201,867 215,881.5 Q229,896 250,896 Q271,896 285,881.5 Q299,867 299,846 Q299,826 285,812 Q271,798 250,798 Q229,798 215,812 Q201,826 201,846 M355,846 Q355,867 369,881.5 Q383,896 403,896 Q424,896 438.5,881.5 Q453,867 453,846 Q453,826 438.5,812 Q424,798 403,798 Q383,798 369,812 Q355,826 355,846"/> 
            <glyph glyph-name="Ý" unicode="&#xDD;" horiz-adv-x="494" d=" M6,700 L83,700 L250,369 L417,700 L494,700 L283,304 L283,0 L217,0 L217,304 M258,896 L351,896 L237,756 L188,756"/> 
            <glyph glyph-name="Þ" unicode="&#xDE;" horiz-adv-x="541" d=" M167,157 L167,0 L101,0 L101,700 L167,700 L167,543 L339,543 Q433,543 487,492 Q541,441 541,350 Q541,259 487,208 Q433,157 339,157 M340,219 Q376,219 401,229 Q426,239 442,256.5 Q458,274 465,298 Q472,322 472,350 Q472,378 465,402 Q458,426 442,443.5 Q426,461 401,471 Q376,481 340,481 L167,481 L167,219"/> 
            <glyph glyph-name="ß" unicode="&#xDF;" horiz-adv-x="508" d=" M40,410 L94,410 L94,488 Q94,543 108.5,584.5 Q123,626 148,653.5 Q173,681 207,694.5 Q241,708 279,708 Q322,708 356,695 Q390,682 413.5,658.5 Q437,635 449.5,603.5 Q462,572 462,535 Q462,506 454.5,481 Q447,456 434.5,436.5 Q422,417 404.5,404 Q387,391 367,386 Q392,380 417,365.5 Q442,351 462.5,329 Q483,307 495.5,276.5 Q508,246 508,208 Q508,155 492.5,114.5 Q477,74 448.5,47 Q420,20 381,6 Q342,-8 296,-8 Q276,-8 254,-5.5 Q232,-3 220,-1 L220,57 Q235,54 251,52 Q267,50 290,50 Q367,50 405.5,90.5 Q444,131 444,202 Q444,241 430.5,269.5 Q417,298 394,317 Q371,336 339.5,345 Q308,354 271,354 L239,354 L239,410 L277,410 Q337,410 369.5,443 Q402,476 402,530 Q402,587 368,618.5 Q334,650 279,650 Q225,650 191.5,609.5 Q158,569 158,487 L158,0 L94,0 L94,354 L40,354"/> 
            <glyph glyph-name="à" unicode="&#xE0;" horiz-adv-x="435" d=" M122,145 Q122,98 148.5,74 Q175,50 220,50 Q244,50 271,59.5 Q298,69 320.5,90.5 Q343,112 358,147 Q373,182 373,233 L373,252 L291,252 Q204,252 163,223.5 Q122,195 122,145 M435,0 L388,0 L373,78 Q352,41 313,16.5 Q274,-8 214,-8 Q182,-8 154,0.5 Q126,9 104,27 Q82,45 69.5,74 Q57,103 57,145 Q57,229 120,269.5 Q183,310 289,310 L373,310 L373,332 Q373,398 340.5,426 Q308,454 257,454 Q205,454 176.5,426 Q148,398 137,360 L77,374 Q82,406 98,431.5 Q114,457 138,475 Q162,493 192.5,502.5 Q223,512 257,512 Q294,512 326.5,500 Q359,488 383,465.5 Q407,443 421,410 Q435,377 435,334 M314,560 L265,560 L151,700 L244,700"/> 
            <glyph glyph-name="á" unicode="&#xE1;" horiz-adv-x="435" d=" M122,145 Q122,98 148.5,74 Q175,50 220,50 Q244,50 271,59.5 Q298,69 320.5,90.5 Q343,112 358,147 Q373,182 373,233 L373,252 L291,252 Q204,252 163,223.5 Q122,195 122,145 M435,0 L388,0 L373,78 Q352,41 313,16.5 Q274,-8 214,-8 Q182,-8 154,0.5 Q126,9 104,27 Q82,45 69.5,74 Q57,103 57,145 Q57,229 120,269.5 Q183,310 289,310 L373,310 L373,332 Q373,398 340.5,426 Q308,454 257,454 Q205,454 176.5,426 Q148,398 137,360 L77,374 Q82,406 98,431.5 Q114,457 138,475 Q162,493 192.5,502.5 Q223,512 257,512 Q294,512 326.5,500 Q359,488 383,465.5 Q407,443 421,410 Q435,377 435,334 M270,700 L363,700 L249,560 L200,560"/> 
            <glyph glyph-name="â" unicode="&#xE2;" horiz-adv-x="435" d=" M122,145 Q122,98 148.5,74 Q175,50 220,50 Q244,50 271,59.5 Q298,69 320.5,90.5 Q343,112 358,147 Q373,182 373,233 L373,252 L291,252 Q204,252 163,223.5 Q122,195 122,145 M435,0 L388,0 L373,78 Q352,41 313,16.5 Q274,-8 214,-8 Q182,-8 154,0.5 Q126,9 104,27 Q82,45 69.5,74 Q57,103 57,145 Q57,229 120,269.5 Q183,310 289,310 L373,310 L373,332 Q373,398 340.5,426 Q308,454 257,454 Q205,454 176.5,426 Q148,398 137,360 L77,374 Q82,406 98,431.5 Q114,457 138,475 Q162,493 192.5,502.5 Q223,512 257,512 Q294,512 326.5,500 Q359,488 383,465.5 Q407,443 421,410 Q435,377 435,334 M243,717 L265,717 L409,566 L337,566 L254,655 L171,566 L99,566"/> 
            <glyph glyph-name="ã" unicode="&#xE3;" horiz-adv-x="435" d=" M122,145 Q122,98 148.5,74 Q175,50 220,50 Q244,50 271,59.5 Q298,69 320.5,90.5 Q343,112 358,147 Q373,182 373,233 L373,252 L291,252 Q204,252 163,223.5 Q122,195 122,145 M435,0 L388,0 L373,78 Q352,41 313,16.5 Q274,-8 214,-8 Q182,-8 154,0.5 Q126,9 104,27 Q82,45 69.5,74 Q57,103 57,145 Q57,229 120,269.5 Q183,310 289,310 L373,310 L373,332 Q373,398 340.5,426 Q308,454 257,454 Q205,454 176.5,426 Q148,398 137,360 L77,374 Q82,406 98,431.5 Q114,457 138,475 Q162,493 192.5,502.5 Q223,512 257,512 Q294,512 326.5,500 Q359,488 383,465.5 Q407,443 421,410 Q435,377 435,334 M90,624 Q107,656 133,674.5 Q159,693 189,693 Q214,693 231,686.5 Q248,680 261.5,672.5 Q275,665 288.5,658.5 Q302,652 320,652 Q343,652 358,661.5 Q373,671 387,688 L427,657 Q410,625 384,606.5 Q358,588 328,588 Q303,588 286,594.5 Q269,601 255.5,608.5 Q242,616 228.5,622.5 Q215,629 197,629 Q174,629 159,619.5 Q144,610 130,593"/> 
            <glyph glyph-name="ä" unicode="&#xE4;" horiz-adv-x="435" d=" M122,145 Q122,98 148.5,74 Q175,50 220,50 Q244,50 271,59.5 Q298,69 320.5,90.5 Q343,112 358,147 Q373,182 373,233 L373,252 L291,252 Q204,252 163,223.5 Q122,195 122,145 M435,0 L388,0 L373,78 Q352,41 313,16.5 Q274,-8 214,-8 Q182,-8 154,0.5 Q126,9 104,27 Q82,45 69.5,74 Q57,103 57,145 Q57,229 120,269.5 Q183,310 289,310 L373,310 L373,332 Q373,398 340.5,426 Q308,454 257,454 Q205,454 176.5,426 Q148,398 137,360 L77,374 Q82,406 98,431.5 Q114,457 138,475 Q162,493 192.5,502.5 Q223,512 257,512 Q294,512 326.5,500 Q359,488 383,465.5 Q407,443 421,410 Q435,377 435,334 M134,650 Q134,671 148,685.5 Q162,700 183,700 Q204,700 218,685.5 Q232,671 232,650 Q232,630 218,616 Q204,602 183,602 Q162,602 148,616 Q134,630 134,650 M288,650 Q288,671 302,685.5 Q316,700 336,700 Q357,700 371.5,685.5 Q386,671 386,650 Q386,630 371.5,616 Q357,602 336,602 Q316,602 302,616 Q288,630 288,650"/> 
            <glyph glyph-name="å" unicode="&#xE5;" horiz-adv-x="435" d=" M122,145 Q122,98 148.5,74 Q175,50 220,50 Q244,50 271,59.5 Q298,69 320.5,90.5 Q343,112 358,147 Q373,182 373,233 L373,252 L291,252 Q204,252 163,223.5 Q122,195 122,145 M435,0 L388,0 L373,78 Q352,41 313,16.5 Q274,-8 214,-8 Q182,-8 154,0.5 Q126,9 104,27 Q82,45 69.5,74 Q57,103 57,145 Q57,229 120,269.5 Q183,310 289,310 L373,310 L373,332 Q373,398 340.5,426 Q308,454 257,454 Q205,454 176.5,426 Q148,398 137,360 L77,374 Q82,406 98,431.5 Q114,457 138,475 Q162,493 192.5,502.5 Q223,512 257,512 Q294,512 326.5,500 Q359,488 383,465.5 Q407,443 421,410 Q435,377 435,334 M160,653 Q160,695 187.5,723 Q215,751 257,751 Q300,751 327,723 Q354,695 354,653 Q354,613 327,586 Q300,559 257,559 Q215,559 187.5,586 Q160,613 160,653 M206,654 Q206,631 220,616.5 Q234,602 257,602 Q280,602 294,616.5 Q308,631 308,654 Q308,677 294,692.5 Q280,708 257,708 Q234,708 220,692.5 Q206,677 206,654"/> 
            <glyph glyph-name="æ" unicode="&#xE6;" horiz-adv-x="818" d=" M818,252 L438,252 Q438,208 448.5,171 Q459,134 479.5,107 Q500,80 529.5,65 Q559,50 597,50 Q655,50 691,76 Q727,102 751,154 L807,131 Q768,54 717.5,23 Q667,-8 597,-8 Q528,-8 477,27 Q426,62 402,119 Q378,53 327.5,22.5 Q277,-8 214,-8 Q182,-8 154,0.5 Q126,9 104,27 Q82,45 69.5,74 Q57,103 57,145 Q57,229 120,269.5 Q183,310 289,310 L373,310 L373,332 Q373,398 340.5,426 Q308,454 257,454 Q205,454 176.5,426 Q148,398 137,360 L77,374 Q82,406 98,431.5 Q114,457 138,475 Q162,493 192.5,502.5 Q223,512 257,512 Q314,512 357,486 Q400,460 420,415 Q449,460 494.5,486 Q540,512 597,512 Q646,512 686.5,495.5 Q727,479 756,448.5 Q785,418 801.5,375 Q818,332 818,280 M122,145 Q122,98 148.5,74 Q175,50 220,50 Q244,50 271,59.5 Q298,69 320.5,90.5 Q343,112 358,147 Q373,182 373,233 L373,252 L291,252 Q204,252 163,223.5 Q122,195 122,145 M597,454 Q565,454 539.5,443 Q514,432 494.5,412.5 Q475,393 461.5,367 Q448,341 442,310 L754,310 Q745,376 705.5,415 Q666,454 597,454"/> 
            <glyph glyph-name="ç" unicode="&#xE7;" horiz-adv-x="482" d=" M482,131 Q429,-8 279,-8 Q223,-8 181.5,14 Q140,36 112,72.5 Q84,109 70,155.5 Q56,202 56,252 Q56,301 70,348 Q84,395 112,431.5 Q140,468 181.5,490 Q223,512 279,512 Q429,512 482,373 L426,351 Q406,401 371,427.5 Q336,454 279,454 Q238,454 208.5,438 Q179,422 159.5,394 Q140,366 130.5,329.5 Q121,293 121,252 Q121,211 130.5,174.5 Q140,138 159.5,110 Q179,82 208.5,66 Q238,50 279,50 Q336,50 371,76.5 Q406,103 426,153 M254,-214 L182,-183 L280,-60 L335,-60"/> 
            <glyph glyph-name="è" unicode="&#xE8;" horiz-adv-x="501" d=" M501,252 L121,252 Q121,208 131.5,171 Q142,134 162.5,107 Q183,80 212.5,65 Q242,50 280,50 Q338,50 372.5,75.5 Q407,101 435,158 L490,131 Q451,54 400.5,23 Q350,-8 280,-8 Q230,-8 188.5,11.5 Q147,31 117.5,65.5 Q88,100 72,148 Q56,196 56,252 Q56,308 72,356 Q88,404 117.5,438.5 Q147,473 188.5,492.5 Q230,512 280,512 Q329,512 369.5,495.5 Q410,479 439,448.5 Q468,418 484.5,375 Q501,332 501,280 M280,454 Q248,454 222.5,443 Q197,432 177.5,412.5 Q158,393 144.5,367 Q131,341 125,310 L437,310 Q428,376 388.5,415 Q349,454 280,454 M330,560 L281,560 L167,700 L260,700"/> 
            <glyph glyph-name="é" unicode="&#xE9;" horiz-adv-x="501" d=" M501,252 L121,252 Q121,208 131.5,171 Q142,134 162.5,107 Q183,80 212.5,65 Q242,50 280,50 Q338,50 372.5,75.5 Q407,101 435,158 L490,131 Q451,54 400.5,23 Q350,-8 280,-8 Q230,-8 188.5,11.5 Q147,31 117.5,65.5 Q88,100 72,148 Q56,196 56,252 Q56,308 72,356 Q88,404 117.5,438.5 Q147,473 188.5,492.5 Q230,512 280,512 Q329,512 369.5,495.5 Q410,479 439,448.5 Q468,418 484.5,375 Q501,332 501,280 M280,454 Q248,454 222.5,443 Q197,432 177.5,412.5 Q158,393 144.5,367 Q131,341 125,310 L437,310 Q428,376 388.5,415 Q349,454 280,454 M295,700 L388,700 L274,560 L225,560"/> 
            <glyph glyph-name="ê" unicode="&#xEA;" horiz-adv-x="501" d=" M501,252 L121,252 Q121,208 131.5,171 Q142,134 162.5,107 Q183,80 212.5,65 Q242,50 280,50 Q338,50 372.5,75.5 Q407,101 435,158 L490,131 Q451,54 400.5,23 Q350,-8 280,-8 Q230,-8 188.5,11.5 Q147,31 117.5,65.5 Q88,100 72,148 Q56,196 56,252 Q56,308 72,356 Q88,404 117.5,438.5 Q147,473 188.5,492.5 Q230,512 280,512 Q329,512 369.5,495.5 Q410,479 439,448.5 Q468,418 484.5,375 Q501,332 501,280 M280,454 Q248,454 222.5,443 Q197,432 177.5,412.5 Q158,393 144.5,367 Q131,341 125,310 L437,310 Q428,376 388.5,415 Q349,454 280,454 M271,717 L293,717 L437,566 L365,566 L282,655 L199,566 L127,566"/> 
            <glyph glyph-name="ë" unicode="&#xEB;" horiz-adv-x="501" d=" M501,252 L121,252 Q121,208 131.5,171 Q142,134 162.5,107 Q183,80 212.5,65 Q242,50 280,50 Q338,50 372.5,75.5 Q407,101 435,158 L490,131 Q451,54 400.5,23 Q350,-8 280,-8 Q230,-8 188.5,11.5 Q147,31 117.5,65.5 Q88,100 72,148 Q56,196 56,252 Q56,308 72,356 Q88,404 117.5,438.5 Q147,473 188.5,492.5 Q230,512 280,512 Q329,512 369.5,495.5 Q410,479 439,448.5 Q468,418 484.5,375 Q501,332 501,280 M280,454 Q248,454 222.5,443 Q197,432 177.5,412.5 Q158,393 144.5,367 Q131,341 125,310 L437,310 Q428,376 388.5,415 Q349,454 280,454 M157,650 Q157,671 171,685.5 Q185,700 206,700 Q227,700 241,685.5 Q255,671 255,650 Q255,630 241,616 Q227,602 206,602 Q185,602 171,616 Q157,630 157,650 M311,650 Q311,671 325,685.5 Q339,700 359,700 Q380,700 394.5,685.5 Q409,671 409,650 Q409,630 394.5,616 Q380,602 359,602 Q339,602 325,616 Q311,630 311,650"/> 
            <glyph glyph-name="ì" unicode="&#xEC;" horiz-adv-x="190" d=" M171,504 L171,0 L109,0 L109,504 M190,560 L141,560 L27,700 L120,700"/> 
            <glyph glyph-name="í" unicode="&#xED;" horiz-adv-x="260" d=" M171,504 L171,0 L109,0 L109,504 M167,700 L260,700 L146,560 L97,560"/> 
            <glyph glyph-name="î" unicode="&#xEE;" horiz-adv-x="295" d=" M171,504 L171,0 L109,0 L109,504 M385,717 L407,717 L551,566 L479,566 L396,655 L313,566 L241,566"/> 
            <glyph glyph-name="ï" unicode="&#xEF;" horiz-adv-x="266" d=" M171,504 L171,0 L109,0 L109,504 M270,650 Q270,671 284,685.5 Q298,700 319,700 Q340,700 354,685.5 Q368,671 368,650 Q368,630 354,616 Q340,602 319,602 Q298,602 284,616 Q270,630 270,650 M424,650 Q424,671 438,685.5 Q452,700 472,700 Q493,700 507.5,685.5 Q522,671 522,650 Q522,630 507.5,616 Q493,602 472,602 Q452,602 438,616 Q424,630 424,650"/> 
            <glyph glyph-name="ð" unicode="&#xF0;" horiz-adv-x="518" d=" M203,581 L247,645 Q226,659 205.5,669 Q185,679 166,687 L195,730 Q239,710 277,689 L315,745 L357,715 L320,661 Q423,590 470.5,490.5 Q518,391 518,252 Q518,202 502.5,155.5 Q487,109 457.5,72.5 Q428,36 385,14 Q342,-8 287,-8 Q232,-8 189,14 Q146,36 116.5,72.5 Q87,109 71.5,155.5 Q56,202 56,252 Q56,301 71.5,348 Q87,395 116.5,431.5 Q146,468 189,490 Q232,512 287,512 Q327,512 363.5,496.5 Q400,481 423,455 Q409,496 372.5,538.5 Q336,581 289,616 L245,551 M121,252 Q121,214 131,178 Q141,142 161.5,113.5 Q182,85 213.5,67.5 Q245,50 287,50 Q329,50 360.5,67.5 Q392,85 412.5,113.5 Q433,142 443,178 Q453,214 453,252 Q453,290 443,326 Q433,362 412.5,390.5 Q392,419 360.5,436.5 Q329,454 287,454 Q245,454 213.5,436.5 Q182,419 161.5,390.5 Q141,362 131,326 Q121,290 121,252"/> 
            <glyph glyph-name="ñ" unicode="&#xF1;" horiz-adv-x="486" d=" M486,0 L424,0 L424,338 Q424,393 399,423.5 Q374,454 321,454 Q286,454 256.5,437.5 Q227,421 205,391 Q183,361 170.5,318 Q158,275 158,221 L158,0 L96,0 L96,504 L158,504 L158,399 Q184,449 230,480.5 Q276,512 331,512 Q403,512 444.5,469 Q486,426 486,346 M130,624 Q147,656 173,674.5 Q199,693 229,693 Q254,693 271,686.5 Q288,680 301.5,672.5 Q315,665 328.5,658.5 Q342,652 360,652 Q383,652 398,661.5 Q413,671 427,688 L467,657 Q450,625 424,606.5 Q398,588 368,588 Q343,588 326,594.5 Q309,601 295.5,608.5 Q282,616 268.5,622.5 Q255,629 237,629 Q214,629 199,619.5 Q184,610 170,593"/> 
            <glyph glyph-name="ò" unicode="&#xF2;" horiz-adv-x="528" d=" M56,252 Q56,301 72,348 Q88,395 118.5,431.5 Q149,468 193,490 Q237,512 292,512 Q347,512 391,490 Q435,468 465.5,431.5 Q496,395 512,348 Q528,301 528,252 Q528,202 512,155.5 Q496,109 465.5,72.5 Q435,36 391,14 Q347,-8 292,-8 Q237,-8 193,14 Q149,36 118.5,72.5 Q88,109 72,155.5 Q56,202 56,252 M121,252 Q121,214 132,178 Q143,142 164.5,113.5 Q186,85 218,67.5 Q250,50 292,50 Q334,50 366,67.5 Q398,85 419.5,113.5 Q441,142 452,178 Q463,214 463,252 Q463,290 452,326 Q441,362 419.5,390.5 Q398,419 366,436.5 Q334,454 292,454 Q250,454 218,436.5 Q186,419 164.5,390.5 Q143,362 132,326 Q121,290 121,252 M341,560 L292,560 L178,700 L271,700"/> 
            <glyph glyph-name="ó" unicode="&#xF3;" horiz-adv-x="528" d=" M56,252 Q56,301 72,348 Q88,395 118.5,431.5 Q149,468 193,490 Q237,512 292,512 Q347,512 391,490 Q435,468 465.5,431.5 Q496,395 512,348 Q528,301 528,252 Q528,202 512,155.5 Q496,109 465.5,72.5 Q435,36 391,14 Q347,-8 292,-8 Q237,-8 193,14 Q149,36 118.5,72.5 Q88,109 72,155.5 Q56,202 56,252 M121,252 Q121,214 132,178 Q143,142 164.5,113.5 Q186,85 218,67.5 Q250,50 292,50 Q334,50 366,67.5 Q398,85 419.5,113.5 Q441,142 452,178 Q463,214 463,252 Q463,290 452,326 Q441,362 419.5,390.5 Q398,419 366,436.5 Q334,454 292,454 Q250,454 218,436.5 Q186,419 164.5,390.5 Q143,362 132,326 Q121,290 121,252 M311,700 L404,700 L290,560 L241,560"/> 
            <glyph glyph-name="ô" unicode="&#xF4;" horiz-adv-x="528" d=" M56,252 Q56,301 72,348 Q88,395 118.5,431.5 Q149,468 193,490 Q237,512 292,512 Q347,512 391,490 Q435,468 465.5,431.5 Q496,395 512,348 Q528,301 528,252 Q528,202 512,155.5 Q496,109 465.5,72.5 Q435,36 391,14 Q347,-8 292,-8 Q237,-8 193,14 Q149,36 118.5,72.5 Q88,109 72,155.5 Q56,202 56,252 M121,252 Q121,214 132,178 Q143,142 164.5,113.5 Q186,85 218,67.5 Q250,50 292,50 Q334,50 366,67.5 Q398,85 419.5,113.5 Q441,142 452,178 Q463,214 463,252 Q463,290 452,326 Q441,362 419.5,390.5 Q398,419 366,436.5 Q334,454 292,454 Q250,454 218,436.5 Q186,419 164.5,390.5 Q143,362 132,326 Q121,290 121,252 M281,717 L303,717 L447,566 L375,566 L292,655 L209,566 L137,566"/> 
            <glyph glyph-name="õ" unicode="&#xF5;" horiz-adv-x="528" d=" M56,252 Q56,301 72,348 Q88,395 118.5,431.5 Q149,468 193,490 Q237,512 292,512 Q347,512 391,490 Q435,468 465.5,431.5 Q496,395 512,348 Q528,301 528,252 Q528,202 512,155.5 Q496,109 465.5,72.5 Q435,36 391,14 Q347,-8 292,-8 Q237,-8 193,14 Q149,36 118.5,72.5 Q88,109 72,155.5 Q56,202 56,252 M121,252 Q121,214 132,178 Q143,142 164.5,113.5 Q186,85 218,67.5 Q250,50 292,50 Q334,50 366,67.5 Q398,85 419.5,113.5 Q441,142 452,178 Q463,214 463,252 Q463,290 452,326 Q441,362 419.5,390.5 Q398,419 366,436.5 Q334,454 292,454 Q250,454 218,436.5 Q186,419 164.5,390.5 Q143,362 132,326 Q121,290 121,252 M124,624 Q141,656 167,674.5 Q193,693 223,693 Q248,693 265,686.5 Q282,680 295.5,672.5 Q309,665 322.5,658.5 Q336,652 354,652 Q377,652 392,661.5 Q407,671 421,688 L461,657 Q444,625 418,606.5 Q392,588 362,588 Q337,588 320,594.5 Q303,601 289.5,608.5 Q276,616 262.5,622.5 Q249,629 231,629 Q208,629 193,619.5 Q178,610 164,593"/> 
            <glyph glyph-name="ö" unicode="&#xF6;" horiz-adv-x="528" d=" M56,252 Q56,301 72,348 Q88,395 118.5,431.5 Q149,468 193,490 Q237,512 292,512 Q347,512 391,490 Q435,468 465.5,431.5 Q496,395 512,348 Q528,301 528,252 Q528,202 512,155.5 Q496,109 465.5,72.5 Q435,36 391,14 Q347,-8 292,-8 Q237,-8 193,14 Q149,36 118.5,72.5 Q88,109 72,155.5 Q56,202 56,252 M121,252 Q121,214 132,178 Q143,142 164.5,113.5 Q186,85 218,67.5 Q250,50 292,50 Q334,50 366,67.5 Q398,85 419.5,113.5 Q441,142 452,178 Q463,214 463,252 Q463,290 452,326 Q441,362 419.5,390.5 Q398,419 366,436.5 Q334,454 292,454 Q250,454 218,436.5 Q186,419 164.5,390.5 Q143,362 132,326 Q121,290 121,252 M166,650 Q166,671 180,685.5 Q194,700 215,700 Q236,700 250,685.5 Q264,671 264,650 Q264,630 250,616 Q236,602 215,602 Q194,602 180,616 Q166,630 166,650 M320,650 Q320,671 334,685.5 Q348,700 368,700 Q389,700 403.5,685.5 Q418,671 418,650 Q418,630 403.5,616 Q389,602 368,602 Q348,602 334,616 Q320,630 320,650"/> 
            <glyph glyph-name="÷" unicode="&#xF7;" horiz-adv-x="460" d=" M203,134 Q203,156 217,170.5 Q231,185 254,185 Q276,185 290.5,170.5 Q305,156 305,134 Q305,111 290.5,97 Q276,83 254,83 Q231,83 217,97 Q203,111 203,134 M203,500 Q203,522 217,536.5 Q231,551 254,551 Q276,551 290.5,536.5 Q305,522 305,500 Q305,477 290.5,463 Q276,449 254,449 Q231,449 217,463 Q203,477 203,500 M50,345 L460,345 L460,289 L50,289"/> 
            <glyph glyph-name="ø" unicode="&#xF8;" horiz-adv-x="528" d=" M56,252 Q56,301 72,348 Q88,395 118.5,431.5 Q149,468 193,490 Q237,512 292,512 Q331,512 365,500.5 Q399,489 426,469 L482,540 L528,505 L468,429 Q497,393 512.5,347 Q528,301 528,252 Q528,202 512,155.5 Q496,109 465.5,72.5 Q435,36 391,14 Q347,-8 292,-8 Q252,-8 218.5,3.5 Q185,15 158,35 L102,-36 L56,-1 L116,75 Q87,111 71.5,157 Q56,203 56,252 M463,252 Q463,286 454.5,319 Q446,352 429,379 L194,82 Q214,67 238.5,58.5 Q263,50 292,50 Q334,50 366,67.5 Q398,85 419.5,113.5 Q441,142 452,178 Q463,214 463,252 M121,252 Q121,218 129.5,185 Q138,152 155,125 L390,422 Q370,437 345.5,445.5 Q321,454 292,454 Q250,454 218,436.5 Q186,419 164.5,390.5 Q143,362 132,326 Q121,290 121,252"/> 
            <glyph glyph-name="ù" unicode="&#xF9;" horiz-adv-x="480" d=" M90,504 L152,504 L152,166 Q152,111 177,80.5 Q202,50 255,50 Q289,50 319,66.5 Q349,83 371,113 Q393,143 405.5,186 Q418,229 418,283 L418,504 L480,504 L480,0 L418,0 L418,105 Q392,55 346,23.5 Q300,-8 245,-8 Q173,-8 131.5,35 Q90,78 90,158 M328,560 L279,560 L165,700 L258,700"/> 
            <glyph glyph-name="ú" unicode="&#xFA;" horiz-adv-x="480" d=" M90,504 L152,504 L152,166 Q152,111 177,80.5 Q202,50 255,50 Q289,50 319,66.5 Q349,83 371,113 Q393,143 405.5,186 Q418,229 418,283 L418,504 L480,504 L480,0 L418,0 L418,105 Q392,55 346,23.5 Q300,-8 245,-8 Q173,-8 131.5,35 Q90,78 90,158 M298,700 L391,700 L277,560 L228,560"/> 
            <glyph glyph-name="û" unicode="&#xFB;" horiz-adv-x="480" d=" M90,504 L152,504 L152,166 Q152,111 177,80.5 Q202,50 255,50 Q289,50 319,66.5 Q349,83 371,113 Q393,143 405.5,186 Q418,229 418,283 L418,504 L480,504 L480,0 L418,0 L418,105 Q392,55 346,23.5 Q300,-8 245,-8 Q173,-8 131.5,35 Q90,78 90,158 M270,717 L292,717 L436,566 L364,566 L281,655 L198,566 L126,566"/> 
            <glyph glyph-name="ü" unicode="&#xFC;" horiz-adv-x="480" d=" M90,504 L152,504 L152,166 Q152,111 177,80.5 Q202,50 255,50 Q289,50 319,66.5 Q349,83 371,113 Q393,143 405.5,186 Q418,229 418,283 L418,504 L480,504 L480,0 L418,0 L418,105 Q392,55 346,23.5 Q300,-8 245,-8 Q173,-8 131.5,35 Q90,78 90,158 M163,650 Q163,671 177,685.5 Q191,700 212,700 Q233,700 247,685.5 Q261,671 261,650 Q261,630 247,616 Q233,602 212,602 Q191,602 177,616 Q163,630 163,650 M317,650 Q317,671 331,685.5 Q345,700 365,700 Q386,700 400.5,685.5 Q415,671 415,650 Q415,630 400.5,616 Q386,602 365,602 Q345,602 331,616 Q317,630 317,650"/> 
            <glyph glyph-name="ý" unicode="&#xFD;" horiz-adv-x="437" d=" M437,504 L187,-204 L125,-204 L198,3 L17,504 L82,504 L232,96 L372,504 M253,700 L346,700 L232,560 L183,560"/> 
            <glyph glyph-name="þ" unicode="&#xFE;" horiz-adv-x="543" d=" M161,708 L161,433 Q189,469 233,490.5 Q277,512 318,512 Q373,512 415,491.5 Q457,471 485.5,436 Q514,401 528.5,353.5 Q543,306 543,252 Q543,198 528.5,150.5 Q514,103 485.5,68 Q457,33 415,12.5 Q373,-8 318,-8 Q293,-8 269,-2 Q245,4 224.5,14.5 Q204,25 187.5,38 Q171,51 161,66 L161,-204 L97,-204 L97,708 M478,252 Q478,294 467.5,331 Q457,368 436.5,395 Q416,422 385.5,438 Q355,454 315,454 Q275,454 244.5,438 Q214,422 194,395 Q174,368 163.5,331 Q153,294 153,252 Q153,209 163.5,172 Q174,135 194,108 Q214,81 244.5,65.5 Q275,50 315,50 Q355,50 385.5,65.5 Q416,81 436.5,108 Q457,135 467.5,172 Q478,209 478,252"/> 
            <glyph glyph-name="ÿ" unicode="&#xFF;" horiz-adv-x="437" d=" M437,504 L187,-204 L125,-204 L198,3 L17,504 L82,504 L232,96 L372,504 M106,650 Q106,671 120,685.5 Q134,700 155,700 Q176,700 190,685.5 Q204,671 204,650 Q204,630 190,616 Q176,602 155,602 Q134,602 120,616 Q106,630 106,650 M260,650 Q260,671 274,685.5 Q288,700 308,700 Q329,700 343.5,685.5 Q358,671 358,650 Q358,630 343.5,616 Q329,602 308,602 Q288,602 274,616 Q260,630 260,650"/> 
            <glyph glyph-name="Ā" unicode="&#x100;" horiz-adv-x="574" d=" M321,700 L574,0 L506,0 L436,199 L148,199 L78,0 L10,0 L263,700 M169,261 L415,261 L292,610 M172,869 L413,869 L413,813 L172,813"/> 
            <glyph glyph-name="ā" unicode="&#x101;" horiz-adv-x="435" d=" M122,145 Q122,98 148.5,74 Q175,50 220,50 Q244,50 271,59.5 Q298,69 320.5,90.5 Q343,112 358,147 Q373,182 373,233 L373,252 L291,252 Q204,252 163,223.5 Q122,195 122,145 M435,0 L388,0 L373,78 Q352,41 313,16.5 Q274,-8 214,-8 Q182,-8 154,0.5 Q126,9 104,27 Q82,45 69.5,74 Q57,103 57,145 Q57,229 120,269.5 Q183,310 289,310 L373,310 L373,332 Q373,398 340.5,426 Q308,454 257,454 Q205,454 176.5,426 Q148,398 137,360 L77,374 Q82,406 98,431.5 Q114,457 138,475 Q162,493 192.5,502.5 Q223,512 257,512 Q294,512 326.5,500 Q359,488 383,465.5 Q407,443 421,410 Q435,377 435,334 M134,928 L375,928 L375,872 L134,872"/> 
            <glyph glyph-name="Ă" unicode="&#x102;" horiz-adv-x="574" d=" M321,700 L574,0 L506,0 L436,199 L148,199 L78,0 L10,0 L263,700 M169,261 L415,261 L292,610 M397,896 Q397,848 370,817.5 Q343,787 292,787 Q243,787 215,817.5 Q187,848 187,896 L238,896 Q238,870 251.5,853.5 Q265,837 292,837 Q321,837 333.5,853.5 Q346,870 346,896"/> 
            <glyph glyph-name="ă" unicode="&#x103;" horiz-adv-x="435" d=" M122,145 Q122,98 148.5,74 Q175,50 220,50 Q244,50 271,59.5 Q298,69 320.5,90.5 Q343,112 358,147 Q373,182 373,233 L373,252 L291,252 Q204,252 163,223.5 Q122,195 122,145 M435,0 L388,0 L373,78 Q352,41 313,16.5 Q274,-8 214,-8 Q182,-8 154,0.5 Q126,9 104,27 Q82,45 69.5,74 Q57,103 57,145 Q57,229 120,269.5 Q183,310 289,310 L373,310 L373,332 Q373,398 340.5,426 Q308,454 257,454 Q205,454 176.5,426 Q148,398 137,360 L77,374 Q82,406 98,431.5 Q114,457 138,475 Q162,493 192.5,502.5 Q223,512 257,512 Q294,512 326.5,500 Q359,488 383,465.5 Q407,443 421,410 Q435,377 435,334 M359,700 Q359,652 332,621.5 Q305,591 254,591 Q205,591 177,621.5 Q149,652 149,700 L200,700 Q200,674 213.5,657.5 Q227,641 254,641 Q283,641 295.5,657.5 Q308,674 308,700"/> 
            <glyph glyph-name="Ą" unicode="&#x104;" horiz-adv-x="647" d=" M506,0 L436,199 L148,199 L78,0 L10,0 L263,700 L321,700 L574,0 Q547,-25 532.5,-43 Q518,-61 518,-80 Q518,-96 527,-104.5 Q536,-113 551,-113 Q568,-113 580.5,-102 Q593,-91 608,-71 L647,-102 Q621,-136 598.5,-152.5 Q576,-169 541,-169 Q504,-169 483,-148 Q462,-127 462,-92 Q462,-68 476,-44 Q490,-20 519,0 M169,261 L415,261 L292,610"/> 
            <glyph glyph-name="ą" unicode="&#x105;" horiz-adv-x="508" d=" M373,78 Q352,41 313,16.5 Q274,-8 214,-8 Q182,-8 154,0.5 Q126,9 104,27 Q82,45 69.5,74 Q57,103 57,145 Q57,229 120,269.5 Q183,310 289,310 L373,310 L373,332 Q373,398 340.5,426 Q308,454 257,454 Q205,454 176.5,426 Q148,398 137,360 L77,374 Q82,406 98,431.5 Q114,457 138,475 Q162,493 192.5,502.5 Q223,512 257,512 Q294,512 326.5,500 Q359,488 383,465.5 Q407,443 421,410 Q435,377 435,334 L435,0 Q408,-25 393.5,-43 Q379,-61 379,-80 Q379,-96 388,-104.5 Q397,-113 412,-113 Q429,-113 441.5,-102 Q454,-91 469,-71 L508,-102 Q482,-136 459.5,-152.5 Q437,-169 402,-169 Q365,-169 344,-148 Q323,-127 323,-92 Q323,-68 340,-43 Q357,-18 388,0 M122,145 Q122,98 148.5,74 Q175,50 220,50 Q244,50 271,59.5 Q298,69 320.5,90.5 Q343,112 358,147 Q373,182 373,233 L373,252 L291,252 Q204,252 163,223.5 Q122,195 122,145"/> 
            <glyph glyph-name="Ć" unicode="&#x106;" horiz-adv-x="632" d=" M632,192 Q606,100 537.5,46 Q469,-8 368,-8 Q309,-8 253,14 Q197,36 154,80 Q111,124 85,191.5 Q59,259 59,350 Q59,441 85,508.5 Q111,576 154.5,620 Q198,664 253.5,686 Q309,708 368,708 Q469,708 537.5,654 Q606,600 632,508 L567,489 Q547,562 498,604 Q449,646 368,646 Q315,646 271,626.5 Q227,607 195.5,569.5 Q164,532 146,477 Q128,422 128,350 Q128,278 146,223 Q164,168 195.5,130.5 Q227,93 271,73.5 Q315,54 368,54 Q449,54 498,96 Q547,138 567,211 M386,896 L479,896 L365,756 L316,756"/> 
            <glyph glyph-name="ć" unicode="&#x107;" horiz-adv-x="482" d=" M482,131 Q429,-8 279,-8 Q223,-8 181.5,14 Q140,36 112,72.5 Q84,109 70,155.5 Q56,202 56,252 Q56,301 70,348 Q84,395 112,431.5 Q140,468 181.5,490 Q223,512 279,512 Q429,512 482,373 L426,351 Q406,401 371,427.5 Q336,454 279,454 Q238,454 208.5,438 Q179,422 159.5,394 Q140,366 130.5,329.5 Q121,293 121,252 Q121,211 130.5,174.5 Q140,138 159.5,110 Q179,82 208.5,66 Q238,50 279,50 Q336,50 371,76.5 Q406,103 426,153 M299,700 L392,700 L278,560 L229,560"/> 
            <glyph glyph-name="Ĉ" unicode="&#x108;" horiz-adv-x="632" d=" M632,192 Q606,100 537.5,46 Q469,-8 368,-8 Q309,-8 253,14 Q197,36 154,80 Q111,124 85,191.5 Q59,259 59,350 Q59,441 85,508.5 Q111,576 154.5,620 Q198,664 253.5,686 Q309,708 368,708 Q469,708 537.5,654 Q606,600 632,508 L567,489 Q547,562 498,604 Q449,646 368,646 Q315,646 271,626.5 Q227,607 195.5,569.5 Q164,532 146,477 Q128,422 128,350 Q128,278 146,223 Q164,168 195.5,130.5 Q227,93 271,73.5 Q315,54 368,54 Q449,54 498,96 Q547,138 567,211 M358,913 L380,913 L524,762 L452,762 L369,851 L286,762 L214,762"/> 
            <glyph glyph-name="ĉ" unicode="&#x109;" horiz-adv-x="482" d=" M482,131 Q429,-8 279,-8 Q223,-8 181.5,14 Q140,36 112,72.5 Q84,109 70,155.5 Q56,202 56,252 Q56,301 70,348 Q84,395 112,431.5 Q140,468 181.5,490 Q223,512 279,512 Q429,512 482,373 L426,351 Q406,401 371,427.5 Q336,454 279,454 Q238,454 208.5,438 Q179,422 159.5,394 Q140,366 130.5,329.5 Q121,293 121,252 Q121,211 130.5,174.5 Q140,138 159.5,110 Q179,82 208.5,66 Q238,50 279,50 Q336,50 371,76.5 Q406,103 426,153 M269,717 L291,717 L435,566 L363,566 L280,655 L197,566 L125,566"/> 
            <glyph glyph-name="Ċ" unicode="&#x10A;" horiz-adv-x="632" d=" M632,192 Q606,100 537.5,46 Q469,-8 368,-8 Q309,-8 253,14 Q197,36 154,80 Q111,124 85,191.5 Q59,259 59,350 Q59,441 85,508.5 Q111,576 154.5,620 Q198,664 253.5,686 Q309,708 368,708 Q469,708 537.5,654 Q606,600 632,508 L567,489 Q547,562 498,604 Q449,646 368,646 Q315,646 271,626.5 Q227,607 195.5,569.5 Q164,532 146,477 Q128,422 128,350 Q128,278 146,223 Q164,168 195.5,130.5 Q227,93 271,73.5 Q315,54 368,54 Q449,54 498,96 Q547,138 567,211 M319,841 Q319,863 333.5,877.5 Q348,892 370,892 Q392,892 406.5,877.5 Q421,863 421,841 Q421,819 406.5,804.5 Q392,790 370,790 Q348,790 333.5,804.5 Q319,819 319,841"/> 
            <glyph glyph-name="ċ" unicode="&#x10B;" horiz-adv-x="482" d=" M482,131 Q429,-8 279,-8 Q223,-8 181.5,14 Q140,36 112,72.5 Q84,109 70,155.5 Q56,202 56,252 Q56,301 70,348 Q84,395 112,431.5 Q140,468 181.5,490 Q223,512 279,512 Q429,512 482,373 L426,351 Q406,401 371,427.5 Q336,454 279,454 Q238,454 208.5,438 Q179,422 159.5,394 Q140,366 130.5,329.5 Q121,293 121,252 Q121,211 130.5,174.5 Q140,138 159.5,110 Q179,82 208.5,66 Q238,50 279,50 Q336,50 371,76.5 Q406,103 426,153 M229,649 Q229,671 243.5,685.5 Q258,700 280,700 Q302,700 316.5,685.5 Q331,671 331,649 Q331,627 316.5,612.5 Q302,598 280,598 Q258,598 243.5,612.5 Q229,627 229,649"/> 
            <glyph glyph-name="Č" unicode="&#x10C;" horiz-adv-x="632" d=" M632,192 Q606,100 537.5,46 Q469,-8 368,-8 Q309,-8 253,14 Q197,36 154,80 Q111,124 85,191.5 Q59,259 59,350 Q59,441 85,508.5 Q111,576 154.5,620 Q198,664 253.5,686 Q309,708 368,708 Q469,708 537.5,654 Q606,600 632,508 L567,489 Q547,562 498,604 Q449,646 368,646 Q315,646 271,626.5 Q227,607 195.5,569.5 Q164,532 146,477 Q128,422 128,350 Q128,278 146,223 Q164,168 195.5,130.5 Q227,93 271,73.5 Q315,54 368,54 Q449,54 498,96 Q547,138 567,211 M215,913 L287,913 L370,824 L453,913 L525,913 L381,762 L359,762"/> 
            <glyph glyph-name="č" unicode="&#x10D;" horiz-adv-x="482" d=" M482,131 Q429,-8 279,-8 Q223,-8 181.5,14 Q140,36 112,72.5 Q84,109 70,155.5 Q56,202 56,252 Q56,301 70,348 Q84,395 112,431.5 Q140,468 181.5,490 Q223,512 279,512 Q429,512 482,373 L426,351 Q406,401 371,427.5 Q336,454 279,454 Q238,454 208.5,438 Q179,422 159.5,394 Q140,366 130.5,329.5 Q121,293 121,252 Q121,211 130.5,174.5 Q140,138 159.5,110 Q179,82 208.5,66 Q238,50 279,50 Q336,50 371,76.5 Q406,103 426,153 M126,717 L198,717 L281,628 L364,717 L436,717 L292,566 L270,566"/> 
            <glyph glyph-name="Ď" unicode="&#x10E;" horiz-adv-x="603" d=" M285,700 Q352,700 410.5,676 Q469,652 511.5,607 Q554,562 578.5,497 Q603,432 603,350 Q603,268 578.5,203 Q554,138 511.5,93 Q469,48 410.5,24 Q352,0 285,0 L101,0 L101,700 M167,638 L167,62 L286,62 Q334,62 379,78.5 Q424,95 458.5,130.5 Q493,166 513.5,220.5 Q534,275 534,350 Q534,425 513.5,479.5 Q493,534 458.5,569.5 Q424,605 379,621.5 Q334,638 286,638 M124,913 L196,913 L279,824 L362,913 L434,913 L290,762 L268,762"/> 
            <glyph glyph-name="ď" unicode="&#x10F;" horiz-adv-x="673" d=" M594,738 L673,738 L607,580 L564,580 M502,708 L502,0 L440,0 L440,66 Q430,51 413.5,38 Q397,25 375.5,14.5 Q354,4 330,-2 Q306,-8 281,-8 Q226,-8 184,12.5 Q142,33 113.5,68 Q85,103 70.5,150.5 Q56,198 56,252 Q56,306 70.5,353.5 Q85,401 113.5,436 Q142,471 184,491.5 Q226,512 281,512 Q322,512 367,490.5 Q412,469 440,433 L440,708 M121,252 Q121,209 131.5,172 Q142,135 162.5,108 Q183,81 213.5,65.5 Q244,50 284,50 Q324,50 354.5,65.5 Q385,81 405,108 Q425,135 435.5,172 Q446,209 446,252 Q446,294 435.5,331 Q425,368 405,395 Q385,422 354.5,438 Q324,454 284,454 Q244,454 213.5,438 Q183,422 162.5,395 Q142,368 131.5,331 Q121,294 121,252"/> 
            <glyph glyph-name="Đ" unicode="&#x110;" horiz-adv-x="628" d=" M42,381 L126,381 L126,700 L310,700 Q377,700 435.5,676 Q494,652 536.5,607 Q579,562 603.5,497 Q628,432 628,350 Q628,268 603.5,203 Q579,138 536.5,93 Q494,48 435.5,24 Q377,0 310,0 L126,0 L126,319 L42,319 M192,638 L192,381 L276,381 L276,319 L192,319 L192,62 L311,62 Q359,62 404,78.5 Q449,95 483.5,130.5 Q518,166 538.5,220.5 Q559,275 559,350 Q559,425 538.5,479.5 Q518,534 483.5,569.5 Q449,605 404,621.5 Q359,638 311,638"/> 
            <glyph glyph-name="đ" unicode="&#x111;" horiz-adv-x="575" d=" M305,634 L440,634 L440,708 L502,708 L502,634 L575,634 L575,578 L502,578 L502,0 L440,0 L440,66 Q430,51 413.5,38 Q397,25 375.5,14.5 Q354,4 330,-2 Q306,-8 281,-8 Q226,-8 184,12.5 Q142,33 113.5,68 Q85,103 70.5,150.5 Q56,198 56,252 Q56,306 70.5,353.5 Q85,401 113.5,436 Q142,471 184,491.5 Q226,512 281,512 Q322,512 367,490.5 Q412,469 440,433 L440,578 L305,578 M121,252 Q121,209 131.5,172 Q142,135 162.5,108 Q183,81 213.5,65.5 Q244,50 284,50 Q324,50 354.5,65.5 Q385,81 405,108 Q425,135 435.5,172 Q446,209 446,252 Q446,294 435.5,331 Q425,368 405,395 Q385,422 354.5,438 Q324,454 284,454 Q244,454 213.5,438 Q183,422 162.5,395 Q142,368 131.5,331 Q121,294 121,252"/> 
            <glyph glyph-name="Ē" unicode="&#x112;" horiz-adv-x="506" d=" M496,700 L496,638 L167,638 L167,404 L436,404 L436,342 L167,342 L167,62 L506,62 L506,0 L101,0 L101,700 M179,869 L420,869 L420,813 L179,813"/> 
            <glyph glyph-name="ē" unicode="&#x113;" horiz-adv-x="501" d=" M501,252 L121,252 Q121,208 131.5,171 Q142,134 162.5,107 Q183,80 212.5,65 Q242,50 280,50 Q338,50 372.5,75.5 Q407,101 435,158 L490,131 Q451,54 400.5,23 Q350,-8 280,-8 Q230,-8 188.5,11.5 Q147,31 117.5,65.5 Q88,100 72,148 Q56,196 56,252 Q56,308 72,356 Q88,404 117.5,438.5 Q147,473 188.5,492.5 Q230,512 280,512 Q329,512 369.5,495.5 Q410,479 439,448.5 Q468,418 484.5,375 Q501,332 501,280 M280,454 Q248,454 222.5,443 Q197,432 177.5,412.5 Q158,393 144.5,367 Q131,341 125,310 L437,310 Q428,376 388.5,415 Q349,454 280,454 M162,66208 L403,66208 L403,66152 L162,66152"/> 
            <glyph glyph-name="Ĕ" unicode="&#x114;" horiz-adv-x="506" d=" M496,700 L496,638 L167,638 L167,404 L436,404 L436,342 L167,342 L167,62 L506,62 L506,0 L101,0 L101,700 M409,896 Q409,848 382,817.5 Q355,787 304,787 Q255,787 227,817.5 Q199,848 199,896 L250,896 Q250,870 263.5,853.5 Q277,837 304,837 Q333,837 345.5,853.5 Q358,870 358,896"/> 
            <glyph glyph-name="ĕ" unicode="&#x115;" horiz-adv-x="501" d=" M501,252 L121,252 Q121,208 131.5,171 Q142,134 162.5,107 Q183,80 212.5,65 Q242,50 280,50 Q338,50 372.5,75.5 Q407,101 435,158 L490,131 Q451,54 400.5,23 Q350,-8 280,-8 Q230,-8 188.5,11.5 Q147,31 117.5,65.5 Q88,100 72,148 Q56,196 56,252 Q56,308 72,356 Q88,404 117.5,438.5 Q147,473 188.5,492.5 Q230,512 280,512 Q329,512 369.5,495.5 Q410,479 439,448.5 Q468,418 484.5,375 Q501,332 501,280 M280,454 Q248,454 222.5,443 Q197,432 177.5,412.5 Q158,393 144.5,367 Q131,341 125,310 L437,310 Q428,376 388.5,415 Q349,454 280,454 M387,700 Q387,652 360,621.5 Q333,591 282,591 Q233,591 205,621.5 Q177,652 177,700 L228,700 Q228,674 241.5,657.5 Q255,641 282,641 Q311,641 323.5,657.5 Q336,674 336,700"/> 
            <glyph glyph-name="Ė" unicode="&#x116;" horiz-adv-x="506" d=" M496,700 L496,638 L167,638 L167,404 L436,404 L436,342 L167,342 L167,62 L506,62 L506,0 L101,0 L101,700 M252,841 Q252,863 266.5,877.5 Q281,892 303,892 Q325,892 339.5,877.5 Q354,863 354,841 Q354,819 339.5,804.5 Q325,790 303,790 Q281,790 266.5,804.5 Q252,819 252,841"/> 
            <glyph glyph-name="ė" unicode="&#x117;" horiz-adv-x="501" d=" M501,252 L121,252 Q121,208 131.5,171 Q142,134 162.5,107 Q183,80 212.5,65 Q242,50 280,50 Q338,50 372.5,75.5 Q407,101 435,158 L490,131 Q451,54 400.5,23 Q350,-8 280,-8 Q230,-8 188.5,11.5 Q147,31 117.5,65.5 Q88,100 72,148 Q56,196 56,252 Q56,308 72,356 Q88,404 117.5,438.5 Q147,473 188.5,492.5 Q230,512 280,512 Q329,512 369.5,495.5 Q410,479 439,448.5 Q468,418 484.5,375 Q501,332 501,280 M280,454 Q248,454 222.5,443 Q197,432 177.5,412.5 Q158,393 144.5,367 Q131,341 125,310 L437,310 Q428,376 388.5,415 Q349,454 280,454 M225,649 Q225,671 239.5,685.5 Q254,700 276,700 Q298,700 312.5,685.5 Q327,671 327,649 Q327,627 312.5,612.5 Q298,598 276,598 Q254,598 239.5,612.5 Q225,627 225,649"/> 
            <glyph glyph-name="Ę" unicode="&#x118;" horiz-adv-x="579" d=" M101,0 L101,700 L496,700 L496,638 L167,638 L167,404 L436,404 L436,342 L167,342 L167,62 L506,62 L506,0 Q479,-25 464.5,-43 Q450,-61 450,-80 Q450,-96 459,-104.5 Q468,-113 483,-113 Q500,-113 512.5,-102 Q525,-91 540,-71 L579,-102 Q553,-136 530.5,-152.5 Q508,-169 473,-169 Q436,-169 415,-148 Q394,-127 394,-92 Q394,-68 408,-44 Q422,-20 451,0"/> 
            <glyph glyph-name="ę" unicode="&#x119;" horiz-adv-x="501" d=" M501,252 L121,252 Q121,208 131.5,171 Q142,134 162.5,107 Q183,80 212.5,65 Q242,50 280,50 Q338,50 372.5,75.5 Q407,101 435,158 L490,131 Q461,74 426.5,42.5 Q392,11 348,0 Q321,-25 306.5,-43 Q292,-61 292,-80 Q292,-96 301,-104.5 Q310,-113 325,-113 Q342,-113 354.5,-102 Q367,-91 382,-71 L421,-102 Q395,-136 372.5,-152.5 Q350,-169 315,-169 Q278,-169 257,-148 Q236,-127 236,-92 Q236,-70 247.5,-48.5 Q259,-27 282,-8 Q231,-8 189,11.5 Q147,31 117.5,65.5 Q88,100 72,148 Q56,196 56,252 Q56,308 72,356 Q88,404 117.5,438.5 Q147,473 188.5,492.5 Q230,512 280,512 Q329,512 369.5,495.5 Q410,479 439,448.5 Q468,418 484.5,375 Q501,332 501,280 M280,454 Q248,454 222.5,443 Q197,432 177.5,412.5 Q158,393 144.5,367 Q131,341 125,310 L437,310 Q428,376 388.5,415 Q349,454 280,454"/> 
            <glyph glyph-name="Ě" unicode="&#x11A;" horiz-adv-x="506" d=" M496,700 L496,638 L167,638 L167,404 L436,404 L436,342 L167,342 L167,62 L506,62 L506,0 L101,0 L101,700 M145,913 L217,913 L300,824 L383,913 L455,913 L311,762 L289,762"/> 
            <glyph glyph-name="ě" unicode="&#x11B;" horiz-adv-x="501" d=" M501,252 L121,252 Q121,208 131.5,171 Q142,134 162.5,107 Q183,80 212.5,65 Q242,50 280,50 Q338,50 372.5,75.5 Q407,101 435,158 L490,131 Q451,54 400.5,23 Q350,-8 280,-8 Q230,-8 188.5,11.5 Q147,31 117.5,65.5 Q88,100 72,148 Q56,196 56,252 Q56,308 72,356 Q88,404 117.5,438.5 Q147,473 188.5,492.5 Q230,512 280,512 Q329,512 369.5,495.5 Q410,479 439,448.5 Q468,418 484.5,375 Q501,332 501,280 M280,454 Q248,454 222.5,443 Q197,432 177.5,412.5 Q158,393 144.5,367 Q131,341 125,310 L437,310 Q428,376 388.5,415 Q349,454 280,454 M126,717 L198,717 L281,628 L364,717 L436,717 L292,566 L270,566"/> 
            <glyph glyph-name="Ĝ" unicode="&#x11C;" horiz-adv-x="640" d=" M574,108 Q546,54 491,23 Q436,-8 366,-8 Q307,-8 251.5,14.5 Q196,37 153,81.5 Q110,126 84.5,193 Q59,260 59,350 Q59,440 84.5,507 Q110,574 153,618.5 Q196,663 251.5,685.5 Q307,708 366,708 Q472,708 541,653 Q610,598 636,504 L571,486 Q548,562 496,604 Q444,646 366,646 Q314,646 270.5,626.5 Q227,607 195.5,569.5 Q164,532 146,477 Q128,422 128,350 Q128,278 146,222.5 Q164,167 195.5,129.5 Q227,92 270.5,73 Q314,54 366,54 Q466,54 519,114 Q572,174 574,291 L412,291 L412,353 L640,353 L640,0 L582,0 M357,913 L379,913 L523,762 L451,762 L368,851 L285,762 L213,762"/> 
            <glyph glyph-name="ĝ" unicode="&#x11D;" horiz-adv-x="470" d=" M91,343 Q91,381 104,412.5 Q117,444 140.5,466 Q164,488 195,500 Q226,512 262,512 Q286,512 308,506 Q330,500 349,489 L439,540 L468,487 L398,448 Q415,427 424,401 Q433,375 433,343 Q433,304 420,273 Q407,242 383.5,220 Q360,198 329,186 Q298,174 262,174 Q208,174 168,198 Q145,188 136,174 Q127,160 127,142 Q127,115 146,104.5 Q165,94 189,94 L319,94 Q352,94 379.5,86.5 Q407,79 427,63 Q447,47 458.5,22 Q470,-3 470,-38 Q470,-85 454,-118 Q438,-151 410.5,-172 Q383,-193 345,-202.5 Q307,-212 263,-212 Q166,-212 110.5,-168 Q55,-124 55,-46 Q55,-9 70.5,17.5 Q86,44 107,60 Q88,71 77.5,91 Q67,111 67,142 Q67,174 85,197 Q103,220 129,232 Q112,253 101.5,281.5 Q91,310 91,343 M209,40 Q182,40 160,43 Q134,26 124.5,2 Q115,-22 115,-48 Q115,-97 151.5,-126.5 Q188,-156 263,-156 Q338,-156 374,-124.5 Q410,-93 410,-46 Q410,2 383.5,21 Q357,40 312,40 M153,343 Q153,316 162,294.5 Q171,273 186,258 Q201,243 220.5,235.5 Q240,228 262,228 Q284,228 303.5,235.5 Q323,243 338,258 Q353,273 362,294.5 Q371,316 371,343 Q371,370 362,391.5 Q353,413 338,428 Q323,443 303.5,450.5 Q284,458 262,458 Q240,458 220.5,450.5 Q201,443 186,428 Q171,413 162,391.5 Q153,370 153,343 M247,717 L269,717 L413,566 L341,566 L258,655 L175,566 L103,566"/> 
            <glyph glyph-name="Ğ" unicode="&#x11E;" horiz-adv-x="640" d=" M574,108 Q546,54 491,23 Q436,-8 366,-8 Q307,-8 251.5,14.5 Q196,37 153,81.5 Q110,126 84.5,193 Q59,260 59,350 Q59,440 84.5,507 Q110,574 153,618.5 Q196,663 251.5,685.5 Q307,708 366,708 Q472,708 541,653 Q610,598 636,504 L571,486 Q548,562 496,604 Q444,646 366,646 Q314,646 270.5,626.5 Q227,607 195.5,569.5 Q164,532 146,477 Q128,422 128,350 Q128,278 146,222.5 Q164,167 195.5,129.5 Q227,92 270.5,73 Q314,54 366,54 Q466,54 519,114 Q572,174 574,291 L412,291 L412,353 L640,353 L640,0 L582,0 M471,896 Q471,848 444,817.5 Q417,787 366,787 Q317,787 289,817.5 Q261,848 261,896 L312,896 Q312,870 325.5,853.5 Q339,837 366,837 Q395,837 407.5,853.5 Q420,870 420,896"/> 
            </font>
</defs>
</svg>
